<?xml version="1.0" standalone="no"?>
<!DOCTYPE svg PUBLIC "-//W3C//DTD SVG 1.1//EN" "http://www.w3.org/Graphics/SVG/1.1/DTD/svg11.dtd" >
<svg xmlns="http://www.w3.org/2000/svg">
<metadata>Generated by IcoMoon</metadata>
<defs>
<font id="escrapalia-font" horiz-adv-x="1024">
<font-face units-per-em="1024" ascent="960" descent="-64" />
<missing-glyph horiz-adv-x="1024" />
<glyph unicode="&#x20;" horiz-adv-x="512" d="" />
<glyph unicode="&#xe900;" glyph-name="add-calendar" d="M103.117-28.467c-0.214-0.002-0.466-0.003-0.719-0.003-56.554 0-102.4 45.846-102.4 102.4 0 0.253 0.001 0.506 0.003 0.758v-0.039 675.84c-0.001 0.122-0.001 0.267-0.001 0.412 0 56.554 45.846 102.4 102.4 102.4 0.252 0 0.504-0.001 0.756-0.003h110.143v39.117c-0.033 0.541-0.051 1.174-0.051 1.811 0 17.701 14.35 32.051 32.051 32.051s32.051-14.35 32.051-32.051c0-0.637-0.019-1.27-0.055-1.898l0.004 0.087v-39.117h113.766v39.117c-0.033 0.541-0.051 1.174-0.051 1.811 0 17.701 14.35 32.051 32.051 32.051s32.051-14.35 32.051-32.051c0-0.637-0.019-1.27-0.055-1.898l0.004 0.087v-39.117h113.869v39.117c-0.033 0.541-0.051 1.174-0.051 1.811 0 17.701 14.35 32.051 32.051 32.051s32.051-14.35 32.051-32.051c0-0.637-0.019-1.27-0.055-1.898l0.004 0.087v-39.117h113.766v39.117c-0.033 0.541-0.051 1.174-0.051 1.811 0 17.701 14.35 32.051 32.051 32.051s32.051-14.35 32.051-32.051c0-0.637-0.019-1.27-0.055-1.898l0.004 0.087v-39.117h110.182c0.214 0.002 0.466 0.003 0.719 0.003 56.554 0 102.4-45.846 102.4-102.4 0-0.253-0.001-0.506-0.003-0.758v0.039-675.84c0.001-0.122 0.001-0.267 0.001-0.412 0-56.554-45.846-102.4-102.4-102.4-0.252 0-0.504 0.001-0.756 0.003h0.039zM64 74.65c-0.007-0.278-0.011-0.605-0.011-0.933 0-21.095 17.101-38.195 38.195-38.195 0.328 0 0.655 0.004 0.981 0.012l-0.048-0.001h817.766c0.278-0.007 0.605-0.011 0.933-0.011 21.095 0 38.195 17.101 38.195 38.195 0 0.328-0.004 0.655-0.012 0.981l0.001-0.048v501.76h-896zM960 640v110.182c0.007 0.278 0.011 0.605 0.011 0.933 0 21.095-17.101 38.195-38.195 38.195-0.328 0-0.655-0.004-0.981-0.012l0.048 0.001h-110.182v-39.117c-0.986-16.905-14.936-30.24-32-30.24s-31.014 13.336-31.996 30.154l-0.004 0.087v39.117h-113.766v-39.117c-0.986-16.905-14.936-30.24-32-30.24s-31.014 13.336-31.996 30.154l-0.004 0.087v39.117h-113.869v-39.117c-0.986-16.905-14.936-30.24-32-30.24s-31.014 13.336-31.996 30.154l-0.004 0.087v39.117h-113.766v-39.117c-0.986-16.905-14.936-30.24-32-30.24s-31.014 13.336-31.996 30.154l-0.004 0.087v39.117h-110.182c-0.278 0.007-0.605 0.011-0.933 0.011-21.095 0-38.195-17.101-38.195-38.195 0-0.328 0.004-0.655 0.012-0.981l-0.001 0.048v-110.182zM512 96.051c-0.374-0.016-0.813-0.026-1.254-0.026-16.966 0-30.72 13.754-30.72 30.72 0 0.441 0.009 0.88 0.028 1.317l-0.002-0.062v145.92h-145.818c-0.541-0.033-1.174-0.051-1.811-0.051-17.701 0-32.051 14.35-32.051 32.051s14.35 32.051 32.051 32.051c0.637 0 1.27-0.019 1.898-0.055l-0.087 0.004h145.818v145.613c0 17.645 14.304 31.949 31.949 31.949s31.949-14.304 31.949-31.949v0-145.715h145.818c0.541 0.033 1.174 0.051 1.811 0.051 17.701 0 32.051-14.35 32.051-32.051s-14.35-32.051-32.051-32.051c-0.637 0-1.27 0.019-1.898 0.055l0.087-0.004h-145.818v-145.818c0.016-0.374 0.026-0.813 0.026-1.254 0-16.966-13.754-30.72-30.72-30.72-0.441 0-0.88 0.009-1.317 0.028l0.062-0.002z" />
<glyph unicode="&#xe901;" glyph-name="aircraft" d="M215.040 320.922c-0.054 0-0.119 0-0.183 0-17.479 0-33.571 5.934-46.374 15.897l0.17-0.127-159.027 120.832c-3.189 2.356-5.234 6.101-5.234 10.325 0 5.182 3.080 9.645 7.509 11.659l0.080 0.033 74.65 34.816c1.602 0.776 3.484 1.229 5.473 1.229 0.020 0 0.040 0 0.060 0h-0.003c2.249-0.011 4.363-0.578 6.215-1.571l-0.071 0.035 91.034-49.152 182.067 100.352-204.8 155.853c-3.107 2.401-5.088 6.128-5.088 10.318 0 0.478 0.026 0.949 0.076 1.413l-0.005-0.058c0.512 4.562 3.355 8.359 7.294 10.207l0.078 0.033 109.568 51.2c1.55 0.775 3.377 1.229 5.31 1.229 0.041 0 0.082 0 0.123-0.001h-0.006c0.004 0 0.008 0 0.013 0 2.245 0 4.357-0.569 6.2-1.57l-0.068 0.034 250.573-135.373 259.072 142.848h0.614c34.18 18.46 74.498 30.122 117.341 32.13l0.623 0.023c0.483 0.007 1.054 0.011 1.625 0.011 14.455 0 28.33-2.479 41.225-7.036l-0.866 0.267c22.856-8.006 41.002-24.519 50.973-45.647l0.227-0.535 5.939-12.698c4.035-8.051 6.398-17.542 6.398-27.585 0-9.454-2.094-18.42-5.842-26.458l0.161 0.385c-8.339-16.595-21.863-29.557-38.413-36.971l-0.499-0.2-650.138-310.989-81.92-37.99c-9.42-4.519-20.477-7.162-32.151-7.168h-0.002zM42.189 465.203l142.131-108.032c8.485-6.477 19.238-10.377 30.902-10.377 7.812 0 15.214 1.749 21.838 4.878l-0.312-0.132 81.92 37.99 649.523 310.886c21.504 10.24 37.888 31.539 26.010 56.934l-5.837 12.595-0.717 1.331-3.482 6.963-7.168-3.072-93.491-46.694c-1.806-1.021-3.965-1.623-6.265-1.623-7.126 0-12.902 5.777-12.902 12.902 0 5.203 3.080 9.687 7.516 11.728l0.080 0.033 94.208 47.104-19.149 5.53c-8.216 2.411-17.655 3.798-27.418 3.798-0.477 0-0.953-0.003-1.429-0.010l0.072 0.001c-39.164-2.153-75.408-12.74-107.568-29.961l1.379 0.674-244.326-134.656 61.44-33.075c4.061-2.253 6.764-6.516 6.764-11.409 0-0.129-0.002-0.257-0.006-0.386v0.019c-0.1-5.006-3.106-9.286-7.396-11.232l-0.079-0.032-170.701-79.667c-1.632-0.704-3.531-1.118-5.526-1.126h-0.003c-0.065-0.001-0.142-0.002-0.219-0.002-2.828 0-5.45 0.882-7.606 2.386l0.043-0.029-50.586 38.502-198.144-109.056c-1.805-1-3.951-1.602-6.235-1.638h-0.011c-2.249 0.040-4.358 0.603-6.222 1.573l0.078-0.037-91.136 49.459zM198.963 728.781l254.874-193.843 36.659 17.101-64.41 47.411c-2.71 1.96-4.593 4.919-5.111 8.327l-0.009 0.070c-0.106 0.623-0.167 1.34-0.167 2.071 0 7.126 5.777 12.902 12.902 12.902 2.921 0 5.615-0.97 7.777-2.607l-0.032 0.023 75.776-55.706 76.698 35.84-310.682 167.731zM57.037 164.454c-7.126 0-12.902 5.777-12.902 12.902s5.777 12.902 12.902 12.902h699.802c7.126 0 12.902-5.777 12.902-12.902s-5.777-12.902-12.902-12.902v0zM861.491 164.454c-7.126 0-12.902 5.777-12.902 12.902s5.777 12.902 12.902 12.902h74.342c7.126 0 12.902-5.777 12.902-12.902s-5.777-12.902-12.902-12.902v0zM168.653 62.157c-6.669 0.611-11.852 6.177-11.852 12.954s5.183 12.342 11.801 12.95l0.051 0.004h341.811c6.669-0.611 11.852-6.177 11.852-12.954s-5.183-12.342-11.801-12.95l-0.051-0.004zM12.902 578.253c-0.007 0-0.016 0-0.024 0-7.126 0-12.902 5.777-12.902 12.902 0 5.401 3.318 10.027 8.028 11.95l0.086 0.031 137.114 55.808c1.45 0.624 3.135 0.998 4.905 1.024h0.010c7.121-0.152 12.836-5.961 12.836-13.104 0-1.773-0.352-3.463-0.99-5.005l0.032 0.087c-1.352-3.156-3.861-5.598-6.98-6.831l-0.085-0.030-137.114-55.808c-1.451-0.605-3.133-0.977-4.897-1.024h-0.018z" />
<glyph unicode="&#xe902;" glyph-name="alert" d="M1015.808 60.314l-446.054 835.891c-11.057 20.387-32.297 33.997-56.716 33.997-0.005 0-0.010 0-0.014 0h0.001c-0.026 0-0.058 0-0.089 0-24.343 0-45.517-13.569-56.371-33.557l-0.168-0.337-448.205-835.891c-4.78-8.772-7.591-19.213-7.591-30.31 0-35.516 28.791-64.307 64.307-64.307 0.005 0 0.010 0 0.014 0h894.156c35.498 0.023 64.266 28.806 64.266 64.307 0 11.056-2.79 21.461-7.705 30.548l0.168-0.34zM513.024 94.31c-35.516 0-64.307 28.791-64.307 64.307s28.791 64.307 64.307 64.307c35.516 0 64.307-28.791 64.307-64.307v0c0-35.516-28.791-64.307-64.307-64.307v0zM577.331 350.31c0-35.516-28.791-64.307-64.307-64.307s-64.307 28.791-64.307 64.307v257.434c0 35.516 28.791 64.307 64.307 64.307s64.307-28.791 64.307-64.307v0z" />
<glyph unicode="&#xe903;" glyph-name="all" d="M46.592 540.877s372.531 0 372.531 0 0 372.634 0 372.634-372.634 0-372.634 0 0.102-372.634 0.102-372.634zM0 913.715c0.173 25.493 20.792 46.112 46.268 46.285h372.855c25.493-0.173 46.112-20.792 46.285-46.268v-372.855c-0.173-25.493-20.792-46.112-46.268-46.285h-372.855c-25.493 0.173-46.112 20.792-46.285 46.268v0.017zM46.592-18.125s372.326 0 372.326 0v373.248s-372.634 0-372.634 0 0.307-372.838 0.307-372.838zM0 355.123c0.173 25.493 20.792 46.112 46.268 46.285h372.855c25.493-0.173 46.112-20.792 46.285-46.268v-372.855c-0.173-25.493-20.792-46.112-46.268-46.285h-372.855c-25.493 0.173-46.112 20.792-46.285 46.268v0.017zM605.082-17.715s372.634 0 372.634 0 0 372.531 0 372.531-372.531 0-372.531 0-0.102-372.531-0.102-372.531zM558.592 355.123c0.173 25.493 20.792 46.112 46.268 46.285h372.855c25.493-0.173 46.112-20.792 46.285-46.268v-372.855c-0.173-25.493-20.792-46.112-46.268-46.285h-372.855c-25.493 0.173-46.112 20.792-46.285 46.268v0.017zM605.082 540.877s372.634 0 372.634 0 0 372.634 0 372.634-372.531 0-372.531 0-0.102-372.634-0.102-372.634zM558.592 913.715c0.173 25.493 20.792 46.112 46.268 46.285h372.855c25.493-0.173 46.112-20.792 46.285-46.268v-372.855c-0.173-25.493-20.792-46.112-46.268-46.285h-372.855c-25.493 0.173-46.112 20.792-46.285 46.268v0.017z" />
<glyph unicode="&#xe904;" glyph-name="angle-bottom" d="M512 333.107l-403.251 403.251c-5.918 6.3-14.303 10.223-23.603 10.223s-17.685-3.924-23.587-10.206l-0.016-0.017-51.2-51.2c-6.3-5.918-10.223-14.303-10.223-23.603s3.924-17.685 10.206-23.587l0.017-0.016 478.208-478.208c5.901-6.295 14.269-10.216 23.552-10.216s17.651 3.922 23.536 10.199l0.016 0.018 478.106 478.106c6.307 5.87 10.24 14.218 10.24 23.485 0 0.023 0 0.047 0 0.070v-0.004c-0.003 9.319-3.932 17.72-10.223 23.639l-0.017 0.016-51.2 51.2c-5.918 6.3-14.303 10.223-23.603 10.223s-17.685-3.924-23.587-10.206l-0.016-0.017z" />
<glyph unicode="&#xe905;" glyph-name="angle-left" d="M397.107 448l403.149 403.251c6.378 5.86 10.361 14.241 10.361 23.552s-3.983 17.692-10.338 23.531l-0.023 0.021-51.2 51.2c-5.86 6.378-14.241 10.361-23.552 10.361s-17.692-3.983-23.531-10.338l-0.021-0.023-478.31-478.003c-6.322-5.888-10.264-14.26-10.264-23.552s3.942-17.664 10.245-23.534l0.019-0.018 478.106-478.208c5.941-6.298 14.338-10.224 23.652-10.24h0.003c0.007 0 0.014 0 0.022 0 9.281 0 17.643 3.932 23.512 10.221l0.017 0.019 51.2 51.2c6.3 5.918 10.223 14.303 10.223 23.603s-3.924 17.685-10.206 23.587l-0.017 0.016z" />
<glyph unicode="&#xe906;" glyph-name="angle-right" d="M626.893 448l-403.251-403.251c-6.3-5.918-10.223-14.303-10.223-23.603s3.924-17.685 10.206-23.587l0.017-0.016 51.2-51.2c5.918-6.3 14.303-10.223 23.603-10.223s17.685 3.924 23.587 10.206l0.016 0.017 478.208 478.208c6.295 5.901 10.216 14.269 10.216 23.552s-3.922 17.651-10.199 23.536l-0.018 0.016-478.106 478.106c-5.87 6.307-14.218 10.24-23.485 10.24-0.023 0-0.047 0-0.070 0h0.004c-9.319-0.003-17.72-3.932-23.639-10.223l-0.016-0.017-51.2-51.2c-6.3-5.918-10.223-14.303-10.223-23.603s3.924-17.685 10.206-23.587l0.017-0.016z" />
<glyph unicode="&#xe907;" glyph-name="angle-top" d="M512 562.893l403.251-403.251c5.918-6.3 14.303-10.223 23.603-10.223s17.685 3.924 23.587 10.206l0.016 0.017 51.2 51.2c6.3 5.918 10.223 14.303 10.223 23.603s-3.924 17.685-10.206 23.587l-0.017 0.016-478.106 478.31c-5.888 6.322-14.26 10.264-23.552 10.264s-17.664-3.942-23.534-10.245l-0.018-0.019-478.208-478.208c-6.307-5.87-10.24-14.218-10.24-23.485 0-0.023 0-0.047 0-0.070v0.004c0.003-9.319 3.932-17.72 10.223-23.639l0.017-0.016 51.2-51.2c5.918-6.3 14.303-10.223 23.603-10.223s17.685 3.924 23.587 10.206l0.016 0.017z" />
<glyph unicode="&#xe908;" glyph-name="approval" d="M783.77 417.28v460.8h-687.206v-860.16h316.109c22.622 0 40.96-18.338 40.96-40.96s-18.338-40.96-40.96-40.96v0h-357.376c-22.622 0-40.96 18.338-40.96 40.96v0 942.080c0 22.622 18.338 40.96 40.96 40.96v0h769.741c22.622 0 40.96-18.338 40.96-40.96v0-501.76c0-22.622-18.338-40.96-40.96-40.96s-40.96 18.338-40.96 40.96v0zM996.147 316.928c-7.251 6.623-16.943 10.679-27.583 10.679-12.303 0-23.338-5.424-30.847-14.011l-0.041-0.048-226.099-251.802-113.357 109.261c-7.398 7.077-17.449 11.434-28.518 11.434-22.8 0-41.283-18.483-41.283-41.283 0-11.731 4.893-22.319 12.749-29.835l0.015-0.015 144.282-138.854c7.378-7.22 17.487-11.674 28.637-11.674 0.084 0 0.169 0 0.253 0.001h1.421c11.51 0.506 21.718 5.689 28.841 13.681l0.036 0.041 254.259 283.136c6.978 7.331 11.27 17.273 11.27 28.218 0 12.292-5.414 23.319-13.988 30.826l-0.047 0.041zM632.627 719.462h-371.2c-22.763 0-41.216-18.453-41.216-41.216s18.453-41.216 41.216-41.216v0h371.2c22.622 0 40.96 18.338 40.96 40.96s-18.338 40.96-40.96 40.96v0zM673.587 451.482c0 22.622-18.338 40.96-40.96 40.96v0h-371.2c-22.622 0-40.96-18.338-40.96-40.96s18.338-40.96 40.96-40.96v0h371.2c0.061 0 0.133-0.001 0.205-0.001 22.622 0 40.96 18.338 40.96 40.96 0 0 0 0 0 0.001v0zM261.427 272.794c-22.791 0-41.267-18.476-41.267-41.267s18.476-41.267 41.267-41.267v0h109.978c22.791 0 41.267 18.476 41.267 41.267s-18.476 41.267-41.267 41.267v0z" />
<glyph unicode="&#xe909;" glyph-name="art" d="M839.68 688.435c68.551 7.742 121.335 65.396 121.335 135.379 0 75.217-60.975 136.192-136.192 136.192-0.465 0-0.929-0.002-1.393-0.007l0.071 0.001h-623.002c-0.393 0.004-0.857 0.006-1.322 0.006-75.217 0-136.192-60.975-136.192-136.192 0-69.983 52.784-127.637 120.712-135.322l0.623-0.057v-164.966c-25.123-7.218-43.195-29.991-43.195-56.986s18.072-49.768 42.777-56.883l0.418-0.103v-457.318c0-8.936 7.244-16.179 16.179-16.179s16.179 7.244 16.179 16.179v0 454.861h590.643v-454.861c0-8.936 7.244-16.179 16.179-16.179s16.179 7.244 16.179 16.179v0 457.318c25.123 7.218 43.195 29.991 43.195 56.986s-18.072 49.768-42.777 56.883l-0.418 0.103zM96.563 823.706c0.058 57.379 46.557 103.878 103.931 103.936h623.007c57.402 0 103.936-46.534 103.936-103.936s-46.534-103.936-103.936-103.936c-57.402 0-103.936 46.534-103.936 103.936v0c0 0.073 0 0.16 0 0.246 0 17.437 4.358 33.856 12.045 48.227l-0.268-0.549c1.335 2.302 2.123 5.065 2.123 8.012 0 8.936-7.244 16.179-16.179 16.179-6.414 0-11.957-3.733-14.574-9.145l-0.042-0.097c-9.668-18.237-15.345-39.869-15.345-62.827 0-69.53 52.064-126.899 119.333-135.249l0.664-0.067v-76.595h-477.491c-0.385 0.033-0.833 0.051-1.286 0.051-8.936 0-16.179-7.244-16.179-16.179s7.244-16.179 16.179-16.179c0.453 0 0.901 0.019 1.344 0.055l-0.058-0.004h477.491v-53.965h-590.643v54.067h48.435c0.385-0.033 0.833-0.051 1.286-0.051 8.936 0 16.179 7.244 16.179 16.179s-7.244 16.179-16.179 16.179c-0.453 0-0.901-0.019-1.344-0.055l0.058 0.004h-48.435v76.493c67.933 8.417 119.997 65.787 119.997 135.317 0 22.958-5.676 44.59-15.702 63.57l0.358-0.742c-2.659 5.508-8.202 9.241-14.616 9.241-8.936 0-16.179-7.244-16.179-16.179 0-2.947 0.788-5.71 2.165-8.090l-0.042 0.078c7.418-13.822 11.776-30.24 11.776-47.677 0-0.087 0-0.173 0-0.26v0.013c0-57.402-46.534-103.936-103.936-103.936s-103.936 46.534-103.936 103.936v0zM850.432 466.534c0 0 0 0 0 0 0-14.894-12.045-26.975-26.926-27.033h-623.008c-14.197 0.902-25.371 12.637-25.371 26.982s11.173 26.081 25.292 26.978l0.079 0.004h623.002c14.874 0 26.931-12.058 26.931-26.931v0zM334.643 353.28c0 0-0.001 0-0.001 0-32.601 0-59.056-26.312-59.288-58.858v-342.243c0-8.936 7.244-16.179 16.179-16.179s16.179 7.244 16.179 16.179v0 342.221c0 14.874 12.058 26.931 26.931 26.931s26.931-12.058 26.931-26.931v0-342.221c0-8.936 7.244-16.179 16.179-16.179s16.179 7.244 16.179 16.179v0 342.221c-0.174 32.556-26.606 58.88-59.186 58.88-0.036 0-0.073 0-0.109 0h0.006zM512 353.28c0 0-0.001 0-0.001 0-32.601 0-59.056-26.312-59.288-58.858v-342.243c0-8.936 7.244-16.179 16.179-16.179s16.179 7.244 16.179 16.179v0 342.221c0 14.874 12.058 26.931 26.931 26.931s26.931-12.058 26.931-26.931v0-342.221c0-8.936 7.244-16.179 16.179-16.179s16.179 7.244 16.179 16.179v0 342.221c-0.232 32.568-26.687 58.88-59.288 58.88 0 0-0.001 0-0.001 0v0zM689.357 353.28c-0.031 0-0.067 0-0.103 0-32.58 0-59.012-26.324-59.186-58.863v-342.238c0-8.936 7.244-16.179 16.179-16.179s16.179 7.244 16.179 16.179v0 342.221c0 15.015 12.172 27.187 27.187 27.187s27.187-12.172 27.187-27.187v0-64.717c0-8.936 7.244-16.179 16.179-16.179s16.179 7.244 16.179 16.179v0 64.717c-0.231 32.569-26.687 58.882-59.288 58.882-0.181 0-0.361-0.001-0.541-0.002h0.028zM732.467 180.838c-8.701-0.229-15.667-7.337-15.667-16.072 0-0.002 0-0.004 0-0.006v0-212.582c0-8.936 7.244-16.179 16.179-16.179s16.179 7.244 16.179 16.179v0 212.582c0 0.003 0 0.008 0 0.012 0 8.879-7.198 16.077-16.077 16.077-0.216 0-0.431-0.004-0.645-0.013l0.031 0.001zM272.077 823.706c0 8.936-7.244 16.179-16.179 16.179s-16.179-7.244-16.179-16.179v0c0-0.030 0-0.066 0-0.102 0-21.717-17.605-39.322-39.322-39.322s-39.322 17.605-39.322 39.322c0 21.717 17.605 39.322 39.322 39.322 0.036 0 0.072 0 0.108 0h-0.006c8.936 0 16.179 7.244 16.179 16.179s-7.244 16.179-16.179 16.179v0c-39.588 0-71.68-32.092-71.68-71.68s32.092-71.68 71.68-71.68c39.588 0 71.68 32.092 71.68 71.68v0zM823.501 752.128c39.588 0 71.68 32.092 71.68 71.68s-32.092 71.68-71.68 71.68v0c-8.936 0-16.179-7.244-16.179-16.179s7.244-16.179 16.179-16.179v0c21.66 0 39.219-17.559 39.219-39.219s-17.559-39.219-39.219-39.219c-21.66 0-39.219 17.559-39.219 39.219v0c0 8.936-7.244 16.179-16.179 16.179s-16.179-7.244-16.179-16.179v0c0-0.030 0-0.066 0-0.102 0-39.552 32.034-71.622 71.572-71.68h0.006zM385.229 807.526h253.542c8.936 0 16.179 7.244 16.179 16.179s-7.244 16.179-16.179 16.179v0h-253.542c-8.936 0-16.179-7.244-16.179-16.179s7.244-16.179 16.179-16.179v0z" />
<glyph unicode="&#xe90a;" glyph-name="bank-deposit" d="M704 95.949c-8.822 0-15.974-7.152-15.974-15.974s7.152-15.974 15.974-15.974h128c8.822 0 15.974 7.152 15.974 15.974s-7.152 15.974-15.974 15.974h-15.974v192h15.974c8.31 0.685 14.795 7.598 14.795 16.026s-6.485 15.341-14.737 16.022l-0.058 0.004h-128c-8.31-0.685-14.795-7.598-14.795-16.026s6.485-15.341 14.737-16.022l0.058-0.004h15.974v-192zM752.026 287.949h31.949v-192h-31.949zM143.974 31.949c-8.822 0-15.974-7.152-15.974-15.974s7.152-15.974 15.974-15.974h736.051c8.822 0 15.974 7.152 15.974 15.974s-7.152 15.974-15.974 15.974v0zM944.026-32.051h-864.051c-8.822 0-15.974-7.152-15.974-15.974s7.152-15.974 15.974-15.974h864.051c8.822 0 15.974 7.152 15.974 15.974s-7.152 15.974-15.974 15.974v0zM192 95.949c-8.822 0-15.974-7.152-15.974-15.974s7.152-15.974 15.974-15.974h128c8.822 0 15.974 7.152 15.974 15.974s-7.152 15.974-15.974 15.974h-15.974v192h15.974c8.31 0.685 14.795 7.598 14.795 16.026s-6.485 15.341-14.737 16.022l-0.058 0.004h-128c-8.31-0.685-14.795-7.598-14.795-16.026s6.485-15.341 14.737-16.022l0.058-0.004h15.974v-192zM240.026 287.949h31.949v-192h-31.949zM448 95.949c-8.822 0-15.974-7.152-15.974-15.974s7.152-15.974 15.974-15.974h128c8.822 0 15.974 7.152 15.974 15.974s-7.152 15.974-15.974 15.974h-15.974v192h15.974c8.31 0.685 14.795 7.598 14.795 16.026s-6.485 15.341-14.737 16.022l-0.058 0.004h-128c-8.31-0.685-14.795-7.598-14.795-16.026s6.485-15.341 14.737-16.022l0.058-0.004h15.974v-192zM496.026 287.949h31.949v-192h-31.949zM705.024 489.574l118.272-106.598h-620.339l116.224 105.984c-7.606 7.073-14.662 14.389-21.307 22.072l-0.299 0.354-148.48-135.578c-14.746-12.595-19.149-23.757-2.15-23.859h727.040c16.896 0 18.739 10.24 4.096 23.45l-151.040 136.602c-7.039-8.003-14.227-15.322-21.797-22.229l-0.219-0.197zM256 704c0-0.010 0-0.022 0-0.034 0-95.911 52.744-179.503 130.808-223.353l1.288-0.665h-36.045c-8.822 0-15.974-7.152-15.974-15.974s7.152-15.974 15.974-15.974h320c8.822 0 15.974 7.152 15.974 15.974s-7.152 15.974-15.974 15.974h-36.147c79.352 44.515 132.096 128.107 132.096 224.017 0 141.385-114.615 256-256 256-141.373 0-255.981-114.596-256-255.965v-0.002zM736.051 704c0-0.030 0-0.066 0-0.102 0-123.74-100.311-224.051-224.051-224.051s-224.051 100.311-224.051 224.051c0 123.74 100.311 224.051 224.051 224.051v0c123.634-0.175 223.818-100.323 224.051-223.927v-0.022zM574.874 621.568c-13.163-16.171-32.848-26.596-54.986-27.236l-0.106-0.002c-33.28 0-62.054 25.498-75.571 62.362h92.16c8.2 0.68 14.598 7.503 14.598 15.821s-6.398 15.141-14.541 15.817l-0.057 0.004h-99.533c-0.584 4.7-0.919 10.143-0.922 15.663v0.004c0.013 6.294 0.422 12.479 1.203 18.547l-0.077-0.729h99.43c8.2 0.68 14.598 7.503 14.598 15.821s-6.398 15.141-14.541 15.817l-0.057 0.004h-91.546c13.824 35.738 42.189 60.314 74.854 60.314 22.253-0.598 41.953-11.036 54.984-27.102l0.107-0.136c2.534-3.007 6.302-4.904 10.514-4.904 3.922 0 7.46 1.646 9.96 4.284l0.006 0.006c2.76 3.026 4.451 7.069 4.451 11.507 0 4.164-1.488 7.98-3.961 10.946l0.022-0.027c-18.259 22.187-45.497 36.41-76.076 37.067l-0.11 0.002c-48.333 0-89.702-38.298-105.677-92.16h-24.883c-8.011-0.938-14.169-7.686-14.169-15.872s6.158-14.934 14.094-15.865l0.075-0.007h18.33c-0.353-4.104-0.555-8.881-0.555-13.705 0-1.338 0.016-2.673 0.046-4.004l-0.004 0.198c0-5.427 0-10.24 0.717-15.872h-18.534c-8.2-0.68-14.598-7.503-14.598-15.821s6.398-15.141 14.541-15.817l0.057-0.004h23.962c15.974-54.886 57.958-93.798 106.701-93.798 30.679 0.702 57.902 14.914 76.048 36.897l0.138 0.172c2.414 2.914 3.879 6.69 3.879 10.809 0 4.448-1.708 8.496-4.504 11.526l0.011-0.012c-2.497 2.703-6.059 4.391-10.016 4.391-4.196 0-7.949-1.897-10.447-4.881l-0.017-0.021z" />
<glyph unicode="&#xe90b;" glyph-name="best-price" d="M512 81.818c-0.083 0-0.182 0-0.28 0-202.689 0-367.002 164.312-367.002 367.002 0 95.455 36.442 182.399 96.173 247.677l-0.251-0.279c2.242 2.445 5.446 3.977 9.008 3.994h0.003c0.009 0 0.019 0 0.029 0 3.151 0 6.021-1.206 8.172-3.182l-0.009 0.008c2.476-2.222 4.026-5.432 4.026-9.005 0-3.168-1.219-6.051-3.214-8.206l0.007 0.008c-55.714-60.742-89.857-142.055-89.857-231.343 0-189.286 153.447-342.733 342.733-342.733 56.181 0 109.204 13.517 155.995 37.477l-1.934-0.899c1.572 0.775 3.423 1.229 5.38 1.229 0.017 0 0.033 0 0.050 0h-0.003c0.017 0 0.038 0 0.059 0 4.694 0 8.764-2.677 10.764-6.588l0.032-0.068c0.849-1.595 1.348-3.488 1.348-5.497 0-1.368-0.231-2.682-0.657-3.905l0.025 0.083c-1.004-3.144-3.215-5.655-6.074-7.035l-0.070-0.030c-47.464-24.405-103.569-38.71-163.015-38.71-0.506 0-1.012 0.001-1.517 0.003h0.078zM742.502 166.81c-0.018 0-0.039 0-0.060 0-3.653 0-6.928 1.621-9.143 4.183l-0.013 0.015c-1.827 2.119-2.94 4.898-2.94 7.938 0 3.701 1.65 7.017 4.255 9.252l0.016 0.014c74.115 63.241 120.805 156.733 120.805 261.131 0 189.23-153.401 342.63-342.63 342.63-73.526 0-141.642-23.159-197.453-62.582l1.076 0.721c-1.894-1.408-4.279-2.253-6.861-2.253-0.036 0-0.072 0-0.108 0h0.006c-0.046-0.001-0.1-0.001-0.154-0.001-6.73 0-12.186 5.456-12.186 12.186 0 4.146 2.071 7.809 5.235 10.010l0.040 0.026c58.407 40.974 130.969 65.479 209.255 65.479 202.746 0 367.104-164.358 367.104-367.104 0-111.31-49.54-211.049-127.774-278.372l-0.482-0.405c-2.079-1.783-4.802-2.869-7.779-2.869-0.073 0-0.146 0.001-0.219 0.002h0.011zM523.776 251.085c-43.418 0-84.275 25.498-111.923 69.939-12.917 20.595-22.811 44.589-28.306 70.215l-0.263 1.465-1.229 5.734h-33.894c-6.73 0-12.186 5.456-12.186 12.186s5.456 12.186 12.186 12.186v0h30.72l-0.614 7.782c0 6.042-0.614 12.083-0.614 18.227 0 1.946 0 3.891 0 5.939 0 6.554 0 13.005 1.229 20.48l0.819 7.987h-29.696c-6.73 0-12.186 5.456-12.186 12.186s5.456 12.186 12.186 12.186v0h34.099l1.331 5.53c7.165 28.503 18.912 53.507 34.564 75.543l-0.464-0.689c27.75 37.99 64.922 58.88 104.653 58.88s77.005-20.48 104.653-58.88c1.507-2.005 2.413-4.536 2.413-7.279 0-6.73-5.456-12.186-12.186-12.186-0.164 0-0.328 0.003-0.491 0.010l0.023-0.001c-0.038 0-0.083-0.001-0.128-0.001-4.113 0-7.769 1.956-10.090 4.988l-0.022 0.031c-22.63 31.232-52.838 48.538-84.582 48.538s-61.44-17.306-84.89-48.845c-11.663-16.177-21.033-34.969-27.099-55.19l-0.344-1.335-2.867-9.421h72.704c6.73 0 12.186-5.456 12.186-12.186s-5.456-12.186-12.186-12.186v0h-77.312l-0.717-6.451c-0.922-8.704-1.434-15.872-1.638-22.733 0-1.946 0-3.277 0-4.608 0-6.042 0-12.186 0.922-19.558l0.512-6.758h75.776c6.73 0 12.186-5.456 12.186-12.186s-5.456-12.186-12.186-12.186v0h-71.68l2.355-9.114c5.388-21.010 13.432-39.463 23.931-56.222l-0.481 0.824c23.142-37.171 56.422-58.47 91.238-58.47s68.096 21.299 91.341 58.47c2.188 3.469 5.999 5.74 10.341 5.74 2.391 0 4.621-0.689 6.503-1.878l-0.050 0.030c3.469-2.188 5.74-5.999 5.74-10.341 0-2.391-0.689-4.621-1.878-6.503l0.030 0.050c-28.262-44.442-69.018-69.939-112.435-69.939zM647.987-41.677c-23.552 0-47.923 10.24-71.68 19.661-22.016 9.216-44.646 18.227-64.307 18.227s-42.189-9.216-64-18.125c-23.859-10.24-48.23-19.763-71.68-19.763-0.186-0.002-0.405-0.003-0.625-0.003-7.795 0-15.292 1.275-22.294 3.628l0.493-0.144c-31.642 10.24-51.2 42.086-68.506 70.246-12.595 20.48-24.474 39.731-39.322 50.586s-37.274 16.384-60.826 22.118c-33.485 8.090-67.994 16.589-87.347 43.11s-15.974 61.44-13.926 95.334c1.741 24.576 3.482 47.411-2.458 65.434s-20.070 34.202-35.226 52.122c-21.709 25.805-46.285 54.17-46.285 88.064s24.576 62.566 46.080 87.859c15.36 18.125 30.003 35.123 35.84 52.122s4.096 40.96 2.355 65.434c-2.56 34.099-5.12 69.325 13.926 95.539s53.862 35.021 87.347 43.11c23.45 5.734 45.67 11.162 60.826 22.118s26.726 30.106 39.219 50.483c17.408 28.262 36.966 60.109 68.608 70.349 6.592 2.305 14.192 3.652 22.103 3.686h0.016c23.552 0 47.923-10.24 71.68-19.661 22.016-9.011 44.646-18.227 64.205-18.227s42.086 9.216 63.898 18.022c23.962 9.626 48.538 19.866 71.885 19.866 0.143 0.001 0.312 0.002 0.481 0.002 7.837 0 15.385-1.237 22.46-3.525l-0.516 0.144c31.642-10.24 51.2-42.189 68.506-70.246 12.595-20.48 24.474-39.834 39.219-50.586s37.376-16.384 61.44-22.118c33.485-8.192 67.994-16.589 87.347-43.11s16.486-61.44 13.926-95.539c-1.741-24.576-3.482-47.514 2.355-65.536s20.48-33.997 35.43-51.917c21.606-25.395 45.978-54.067 45.978-87.962s-24.883-62.566-46.387-88.166c-15.462-18.125-30.003-35.123-35.533-52.122s-4.096-40.96-2.355-65.434c2.56-34.099 5.12-69.325-13.926-95.539s-53.862-35.021-87.347-43.11c-23.45-5.734-45.773-11.162-60.826-22.118s-26.726-30.106-39.322-50.586c-17.306-28.16-36.864-60.006-68.506-70.246-6.509-2.209-14.005-3.484-21.8-3.484-0.22 0-0.44 0.001-0.659 0.003h0.034zM512 23.142c24.986 0 50.176-10.24 74.445-20.48 17.875-8.965 38.686-15.177 60.668-17.446l0.772-0.065c0.279-0.006 0.608-0.010 0.938-0.010 4.714 0 9.251 0.753 13.5 2.145l-0.306-0.087c22.221 7.168 37.581 32.154 53.862 58.675 13.414 21.811 27.238 44.339 46.387 58.368s45.363 20.48 70.349 26.522c30.106 7.27 58.47 14.234 71.68 32.768s11.162 47.104 8.909 77.722c-1.946 25.907-3.891 52.634 3.584 75.776s24.166 41.882 40.96 61.44c20.48 23.859 39.629 46.387 39.629 70.451s-19.456 46.387-39.834 70.758c-16.486 19.251-33.382 39.117-40.96 61.44s-5.53 49.869-3.584 75.776c2.253 30.72 4.301 59.597-8.909 77.722s-41.779 25.395-71.68 32.768c-25.088 6.042-51.2 12.39-70.451 26.522s-32.973 36.454-46.285 58.163c-16.384 26.624-31.744 51.2-53.965 58.88-3.845 1.238-8.268 1.952-12.858 1.952-0.268 0-0.535-0.002-0.802-0.007l0.040 0.001c-22.752-2.319-43.566-8.533-62.481-17.981l1.041 0.471c-24.269-10.24-49.459-20.48-74.445-20.48s-50.074 10.24-74.445 20.48c-17.874 8.978-38.688 15.192-60.674 17.447l-0.766 0.064c-0.187 0.003-0.408 0.004-0.63 0.004-4.635 0-9.104-0.713-13.303-2.035l0.313 0.085c-22.118-7.168-37.478-32.154-53.76-58.675-13.414-21.914-27.341-44.442-46.49-58.368s-45.158-20.48-70.246-26.522c-30.106-7.373-58.47-14.234-71.68-32.768s-11.059-47.104-8.806-77.722c1.843-25.907 3.891-52.634-3.686-75.776s-24.064-41.984-40.96-61.44c-20.48-23.962-39.629-46.49-39.629-70.451s19.251-46.592 39.629-70.451c16.384-19.251 33.28-39.117 40.96-61.44s5.53-49.869 3.686-75.674c-2.253-30.72-4.403-59.699 8.806-77.824s41.882-25.498 71.68-32.768c25.088-6.144 51.2-12.39 70.349-26.522s32.973-36.454 46.387-58.266c16.384-26.522 31.744-51.2 53.862-58.778 3.885-1.237 8.354-1.95 12.99-1.95 0.221 0 0.442 0.002 0.663 0.005h-0.033c22.752 2.319 43.566 8.533 62.481 17.981l-1.041-0.471c24.166 9.83 49.357 20.070 74.138 20.070z" />
<glyph unicode="&#xe90c;" d="M777.523 277.299c-0.030 0-0.066 0-0.102 0-94.275 0-170.701-76.425-170.701-170.701s76.425-170.701 170.701-170.701c94.275 0 170.701 76.425 170.701 170.701 0 0.036 0 0.072 0 0.108v-0.005c-0.117 94.172-76.427 170.482-170.587 170.598h-0.011zM777.523-26.112c-73.52 0-133.12 59.6-133.12 133.12s59.6 133.12 133.12 133.12c73.52 0 133.12-59.6 133.12-133.12v0c0-73.52-59.6-133.12-133.12-133.12v0z" />
<glyph unicode="&#xe90d;" d="M865.485 178.074c-3.27 2.763-7.533 4.442-12.189 4.442-5.826 0-11.038-2.63-14.514-6.768l-0.024-0.029-81.92-97.894-41.779 42.496c-3.433 3.433-8.176 5.556-13.414 5.556-10.477 0-18.971-8.494-18.971-18.971 0-5.239 2.123-9.981 5.556-13.414v0l56.832-56.934c3.426-3.417 8.155-5.53 13.376-5.53 0.013 0 0.027 0 0.040 0h0.92c5.528 0.28 10.399 2.876 13.697 6.83l0.025 0.030 94.822 113.152c2.83 3.291 4.554 7.604 4.554 12.32 0 5.924-2.719 11.212-6.977 14.686l-0.034 0.027z" />
<glyph unicode="&#xe90e;" d="M777.523 960h-682.701c-10.462 0-18.944-8.482-18.944-18.944v0-948.122c0.056-10.363 8.47-18.742 18.841-18.742 3.636 0 7.032 1.030 9.911 2.814l-0.081-0.046 83.866 50.278 65.638-49.254c3.131-2.348 7.081-3.76 11.362-3.76 3.634 0 7.030 1.018 9.919 2.783l-0.084-0.047 83.866 50.278 65.638-49.254c3.14-2.334 7.084-3.75 11.357-3.789h0.009c0.105-0.002 0.228-0.003 0.352-0.003 3.656 0 7.071 1.030 9.971 2.815l-0.082-0.047 94.72 56.832c5.572 3.371 9.238 9.398 9.238 16.282 0 10.475-8.492 18.966-18.966 18.966-3.591 0-6.95-0.998-9.813-2.732l0.085 0.048-83.866-50.381-66.048 48.947c-3.145 2.383-7.124 3.817-11.438 3.817-3.603 0-6.971-1-9.844-2.738l0.085 0.048-84.275-50.381-65.638 49.254c-3.124 2.387-7.084 3.824-11.379 3.824-3.589 0-6.943-1.003-9.798-2.745l0.083 0.047-66.15-39.629v895.693h645.12v-587.878c0.749-9.901 8.967-17.651 18.995-17.651s18.246 7.75 18.991 17.587l0.004 0.064v606.822c0 10.462-8.482 18.944-18.944 18.944v0z" />
<glyph unicode="&#xe90f;" d="M284.467 789.299h-94.822c-10.462 0-18.944-8.482-18.944-18.944s8.482-18.944 18.944-18.944h94.822c10.462 0 18.944 8.482 18.944 18.944s-8.482 18.944-18.944 18.944v0z" />
<glyph unicode="&#xe910;" d="M645.12 694.477h-95.232c-10.462 0-18.944-8.482-18.944-18.944s8.482-18.944 18.944-18.944h95.232c10.462 0 18.944 8.482 18.944 18.944s-8.482 18.944-18.944 18.944v0z" />
<glyph unicode="&#xe911;" d="M645.12 599.654h-95.232c-10.462 0-18.944-8.482-18.944-18.944s8.482-18.944 18.944-18.944v0h95.232c10.462 0 18.944 8.482 18.944 18.944s-8.482 18.944-18.944 18.944v0z" />
<glyph unicode="&#xe912;" d="M645.12 504.934h-95.232c-9.901-0.749-17.651-8.967-17.651-18.995s7.75-18.246 17.587-18.991l0.064-0.004h95.232c9.901 0.749 17.651 8.967 17.651 18.995s-7.75 18.246-17.587 18.991l-0.064 0.004z" />
<glyph unicode="&#xe913;" d="M645.12 410.112h-95.232c-9.901-0.749-17.651-8.967-17.651-18.995s7.75-18.246 17.587-18.991l0.064-0.004h95.232c9.901 0.749 17.651 8.967 17.651 18.995s-7.75 18.246-17.587 18.991l-0.064 0.004z" />
<glyph unicode="&#xe914;" d="M645.12 314.88h-95.232c-9.901-0.749-17.651-8.967-17.651-18.995s7.75-18.246 17.587-18.991l0.064-0.004h95.232c9.901 0.749 17.651 8.967 17.651 18.995s-7.75 18.246-17.587 18.991l-0.064 0.004z" />
<glyph unicode="&#xe915;" d="M455.066 694.477h-265.421c-10.462 0-18.944-8.482-18.944-18.944s8.482-18.944 18.944-18.944h265.421c10.462 0 18.944 8.482 18.944 18.944s-8.482 18.944-18.944 18.944v0z" />
<glyph unicode="&#xe916;" d="M455.066 599.654h-265.421c-10.462 0-18.944-8.482-18.944-18.944s8.482-18.944 18.944-18.944v0h265.421c10.462 0 18.944 8.482 18.944 18.944s-8.482 18.944-18.944 18.944v0z" />
<glyph unicode="&#xe917;" d="M455.066 504.934h-265.421c-9.901-0.749-17.651-8.967-17.651-18.995s7.75-18.246 17.587-18.991l0.064-0.004h265.421c0.418-0.033 0.904-0.051 1.396-0.051 10.519 0 19.046 8.527 19.046 19.046s-8.527 19.046-19.046 19.046c-0.491 0-0.978-0.019-1.46-0.055l0.064 0.004z" />
<glyph unicode="&#xe918;" d="M455.066 410.112h-265.421c-9.901-0.749-17.651-8.967-17.651-18.995s7.75-18.246 17.587-18.991l0.064-0.004h265.421c0.418-0.033 0.904-0.051 1.396-0.051 10.519 0 19.046 8.527 19.046 19.046s-8.527 19.046-19.046 19.046c-0.491 0-0.978-0.019-1.46-0.055l0.064 0.004z" />
<glyph unicode="&#xe919;" d="M455.066 314.88h-265.421c-9.901-0.749-17.651-8.967-17.651-18.995s7.75-18.246 17.587-18.991l0.064-0.004h265.421c0.418-0.033 0.904-0.051 1.396-0.051 10.519 0 19.046 8.527 19.046 19.046s-8.527 19.046-19.046 19.046c-0.491 0-0.978-0.019-1.46-0.055l0.064 0.004z" />
<glyph unicode="&#xe91a;" d="M777.523 277.299c-0.030 0-0.066 0-0.102 0-94.275 0-170.701-76.425-170.701-170.701s76.425-170.701 170.701-170.701c94.275 0 170.701 76.425 170.701 170.701 0 0.036 0 0.072 0 0.108v-0.005c-0.117 94.172-76.427 170.482-170.587 170.598h-0.011zM777.523-26.112c-73.52 0-133.12 59.6-133.12 133.12s59.6 133.12 133.12 133.12c73.52 0 133.12-59.6 133.12-133.12v0c0-73.52-59.6-133.12-133.12-133.12v0z" />
<glyph unicode="&#xe91b;" d="M777.523 960h-682.701c-10.462 0-18.944-8.482-18.944-18.944v0-948.122c0.056-10.363 8.47-18.742 18.841-18.742 3.636 0 7.032 1.030 9.911 2.814l-0.081-0.046 83.866 50.278 65.638-49.254c3.131-2.348 7.081-3.76 11.362-3.76 3.634 0 7.030 1.018 9.919 2.783l-0.084-0.047 83.866 50.278 65.638-49.254c3.14-2.334 7.084-3.75 11.357-3.789h0.009c0.105-0.002 0.228-0.003 0.352-0.003 3.656 0 7.071 1.030 9.971 2.815l-0.082-0.047 94.72 56.832c5.572 3.371 9.238 9.398 9.238 16.282 0 10.475-8.492 18.966-18.966 18.966-3.591 0-6.95-0.998-9.813-2.732l0.085 0.048-83.866-50.381-66.048 48.947c-3.145 2.383-7.124 3.817-11.438 3.817-3.603 0-6.971-1-9.844-2.738l0.085 0.048-84.275-50.381-65.638 49.254c-3.124 2.387-7.084 3.824-11.379 3.824-3.589 0-6.943-1.003-9.798-2.745l0.083 0.047-66.15-39.629v895.693h645.12v-587.878c0.749-9.901 8.967-17.651 18.995-17.651s18.246 7.75 18.991 17.587l0.004 0.064v606.822c0 10.462-8.482 18.944-18.944 18.944v0z" />
<glyph unicode="&#xe91c;" d="M284.467 789.299h-94.822c-10.462 0-18.944-8.482-18.944-18.944s8.482-18.944 18.944-18.944h94.822c10.462 0 18.944 8.482 18.944 18.944s-8.482 18.944-18.944 18.944v0z" />
<glyph unicode="&#xe91d;" d="M645.12 694.477h-95.232c-10.462 0-18.944-8.482-18.944-18.944s8.482-18.944 18.944-18.944h95.232c10.462 0 18.944 8.482 18.944 18.944s-8.482 18.944-18.944 18.944v0z" />
<glyph unicode="&#xe91e;" d="M645.12 599.654h-95.232c-10.462 0-18.944-8.482-18.944-18.944s8.482-18.944 18.944-18.944v0h95.232c10.462 0 18.944 8.482 18.944 18.944s-8.482 18.944-18.944 18.944v0z" />
<glyph unicode="&#xe91f;" d="M645.12 504.934h-95.232c-9.901-0.749-17.651-8.967-17.651-18.995s7.75-18.246 17.587-18.991l0.064-0.004h95.232c9.901 0.749 17.651 8.967 17.651 18.995s-7.75 18.246-17.587 18.991l-0.064 0.004z" />
<glyph unicode="&#xe920;" d="M645.12 410.112h-95.232c-9.901-0.749-17.651-8.967-17.651-18.995s7.75-18.246 17.587-18.991l0.064-0.004h95.232c9.901 0.749 17.651 8.967 17.651 18.995s-7.75 18.246-17.587 18.991l-0.064 0.004z" />
<glyph unicode="&#xe921;" d="M645.12 314.88h-95.232c-9.901-0.749-17.651-8.967-17.651-18.995s7.75-18.246 17.587-18.991l0.064-0.004h95.232c9.901 0.749 17.651 8.967 17.651 18.995s-7.75 18.246-17.587 18.991l-0.064 0.004z" />
<glyph unicode="&#xe922;" d="M455.066 694.477h-265.421c-10.462 0-18.944-8.482-18.944-18.944s8.482-18.944 18.944-18.944h265.421c10.462 0 18.944 8.482 18.944 18.944s-8.482 18.944-18.944 18.944v0z" />
<glyph unicode="&#xe923;" d="M455.066 599.654h-265.421c-10.462 0-18.944-8.482-18.944-18.944s8.482-18.944 18.944-18.944v0h265.421c10.462 0 18.944 8.482 18.944 18.944s-8.482 18.944-18.944 18.944v0z" />
<glyph unicode="&#xe924;" d="M455.066 504.934h-265.421c-9.901-0.749-17.651-8.967-17.651-18.995s7.75-18.246 17.587-18.991l0.064-0.004h265.421c0.418-0.033 0.904-0.051 1.396-0.051 10.519 0 19.046 8.527 19.046 19.046s-8.527 19.046-19.046 19.046c-0.491 0-0.978-0.019-1.46-0.055l0.064 0.004z" />
<glyph unicode="&#xe925;" d="M455.066 410.112h-265.421c-9.901-0.749-17.651-8.967-17.651-18.995s7.75-18.246 17.587-18.991l0.064-0.004h265.421c0.418-0.033 0.904-0.051 1.396-0.051 10.519 0 19.046 8.527 19.046 19.046s-8.527 19.046-19.046 19.046c-0.491 0-0.978-0.019-1.46-0.055l0.064 0.004z" />
<glyph unicode="&#xe926;" d="M455.066 314.88h-265.421c-9.901-0.749-17.651-8.967-17.651-18.995s7.75-18.246 17.587-18.991l0.064-0.004h265.421c0.418-0.033 0.904-0.051 1.396-0.051 10.519 0 19.046 8.527 19.046 19.046s-8.527 19.046-19.046 19.046c-0.491 0-0.978-0.019-1.46-0.055l0.064 0.004z" />
<glyph unicode="&#xe927;" d="M825.037 55.501c-9.414-10.352-22.867-16.887-37.85-17.1h-0.038c-24.118 1.193-44.239 17.064-51.694 38.814l-0.121 0.405h63.386c4.487 1.152 7.751 5.162 7.751 9.933s-3.263 8.78-7.68 9.917l-0.071 0.016h-68.506c-0.392 2.965-0.615 6.394-0.615 9.875 0 0.128 0 0.256 0.001 0.384v-0.020c0.015 3.987 0.312 7.89 0.873 11.709l-0.054-0.445h68.301c4.487 1.152 7.751 5.162 7.751 9.933s-3.263 8.78-7.68 9.917l-0.071 0.016h-62.874c7.861 21.481 27.599 36.771 51.060 37.985l0.14 0.006c15.030-0.268 28.475-6.833 37.849-17.16l0.039-0.043c1.834-1.751 4.324-2.828 7.066-2.828s5.232 1.077 7.070 2.832l-0.004-0.004c1.722 1.828 2.78 4.298 2.78 7.014s-1.058 5.187-2.785 7.020l0.005-0.005c-13.020 14.225-31.612 23.165-52.294 23.347h-0.033c-34.657-1.565-63.366-25.307-72.366-57.302l-0.133-0.554h-12.288c-5.655 0-10.24-4.585-10.24-10.24v0c0-5.53 2.458-10.24 7.885-10.24h10.24c-0.391-3.361-0.614-7.255-0.614-11.201 0-0.022 0-0.044 0-0.067v0.003c0-3.379 0-6.656 0-10.24h-10.24c-4.487-1.152-7.751-5.162-7.751-9.933s3.263-8.78 7.68-9.917l0.071-0.016h14.336c8.802-33.55 38.279-58.116 73.692-59.388l0.139-0.004c20.862 0.261 39.54 9.395 52.473 23.793l0.059 0.066c2.823 1.854 4.661 5.006 4.661 8.587 0 5.655-4.585 10.24-10.24 10.24-3.764 0-7.054-2.031-8.833-5.057l-0.026-0.048z" />
<glyph unicode="&#xe928;" glyph-name="building" d="M512 69.12c-182.579 0-356.762 24.064-490.496 67.789-12.577 4.037-21.52 15.629-21.52 29.31 0 0.352 0.006 0.702 0.018 1.051l-0.001-0.051v22.733c0.058 17.318 14.111 31.334 31.437 31.334 0 0 0 0 0 0h4.198v93.594c0.382 226.195 158.153 415.431 369.629 464.070l3.209 0.621 2.253 0.512v2.253c2.331 25.072 23.266 44.546 48.749 44.546 0.142 0 0.283-0.001 0.425-0.002h104.221c0.070 0 0.154 0.001 0.237 0.001 25.338 0 46.179-19.253 48.693-43.928l0.017-0.207v-2.253l2.253-0.512c214.907-49.21 372.839-238.683 373.043-465.078v-93.206h4.198c0 0 0.001 0 0.002 0 17.362 0 31.437-14.075 31.437-31.437 0-0.108-0.001-0.216-0.002-0.324v0.016-22.733c0.004-0.177 0.006-0.385 0.006-0.594 0-13.677-8.938-25.267-21.292-29.246l-0.217-0.061c-133.734-43.725-307.917-68.198-490.496-68.198zM31.437 194.15c-2.319 0-4.198-1.88-4.198-4.198v0-22.733c-0.001-0.035-0.002-0.077-0.002-0.119 0-1.785 1.087-3.316 2.636-3.967l0.028-0.011c131.174-42.803 302.387-66.458 482.099-66.458s350.925 23.654 481.997 66.458c1.628 0.603 2.767 2.142 2.767 3.947 0 0.052-0.001 0.105-0.003 0.156v-0.008 22.63c0 2.319-1.88 4.198-4.198 4.198v0h-142.643c-7.522 0-13.619 6.098-13.619 13.619s6.098 13.619 13.619 13.619h111.309v93.594c0 0.083 0 0.182 0 0.28 0 170.496-95.024 318.798-235.001 394.834l-2.363 1.174-3.891 2.048-36.864-257.843c-0.982-6.616-6.606-11.64-13.411-11.674h-1.95c-6.66 1.019-11.702 6.707-11.702 13.572 0 0.667 0.048 1.322 0.139 1.964l-0.009-0.073 38.093 266.24-2.15 1.024c-21.329 9.633-46.627 18.308-72.831 24.668l-3.048 0.625-3.686 0.922-14.541-421.99c-0.798-26.409-22.397-47.515-48.926-47.515-0.115 0-0.231 0-0.346 0.001h-73.505c-0.098-0.001-0.213-0.001-0.328-0.001-26.529 0-48.129 21.105-48.924 47.442l-0.002 0.073-14.541 421.786-3.584-0.922c-29.276-6.963-54.611-15.639-78.804-26.416l2.823 1.123-2.15-1.024 38.093-266.24c0.101-0.624 0.159-1.343 0.159-2.075 0-3.079-1.021-5.918-2.744-8.199l0.025 0.034c-2.166-2.801-5.32-4.747-8.932-5.315l-0.079-0.010h-1.946c-6.808 0.034-12.433 5.057-13.405 11.599l-0.009 0.075-36.864 257.843-3.891-2.048c-142.332-77.207-237.352-225.496-237.363-395.979v-93.186h609.382c0.353 0.033 0.764 0.051 1.18 0.051 7.522 0 13.619-6.098 13.619-13.619s-6.098-13.619-13.619-13.619c-0.415 0-0.826 0.019-1.232 0.055l0.052-0.004zM459.878 799.334c-6.23-0.013-11.854-2.599-15.866-6.752l-0.006-0.006c-3.812-3.908-6.164-9.256-6.164-15.153 0-0.325 0.007-0.648 0.021-0.969l-0.002 0.046 15.36-444.928c0.342-11.835 10.018-21.299 21.905-21.299 0.039 0 0.078 0 0.117 0h73.517c0.033 0 0.072 0 0.111 0 11.887 0 21.563 9.464 21.904 21.268l0.001 0.031 15.36 444.928c0.013 0.276 0.020 0.599 0.020 0.924 0 5.897-2.351 11.245-6.168 15.158l0.004-0.004c-4.018 4.159-9.642 6.746-15.87 6.758h-0.002zM743.424 194.048c-7.522 0-13.619 6.098-13.619 13.619s6.098 13.619 13.619 13.619h35.533c7.522 0 13.619-6.098 13.619-13.619s-6.098-13.619-13.619-13.619v0zM369.562 336.486c-6.808 0.034-12.433 5.057-13.405 11.599l-0.009 0.075-5.12 35.635c-0.083 0.564-0.13 1.215-0.13 1.877 0 6.845 5.050 12.511 11.627 13.475l0.074 0.009h1.946c6.821-0.087 12.437-5.137 13.405-11.701l0.009-0.075 5.12-35.533c0.095-0.607 0.149-1.308 0.149-2.021 0-3.095-1.017-5.952-2.735-8.255l0.026 0.037c-2.166-2.801-5.32-4.747-8.932-5.315l-0.079-0.010zM654.438 336.486h-1.946c-6.649 0.92-11.715 6.567-11.715 13.396 0 0.693 0.052 1.374 0.153 2.039l-0.009-0.075 5.12 35.533c0.977 6.639 6.593 11.689 13.405 11.776h1.955c6.651-0.973 11.701-6.638 11.701-13.483 0-0.662-0.047-1.313-0.138-1.949l0.009 0.073-5.12-35.635c-0.982-6.616-6.606-11.64-13.411-11.674h-0.004z" />
<glyph unicode="&#xe929;" glyph-name="calculator" d="M917.299 896c0 35.346-28.654 64-64 64v0h-682.598c-35.346 0-64-28.654-64-64v0-256h810.598zM810.701 725.299c-0.058-23.539-19.154-42.598-42.701-42.598 0 0 0 0 0 0h-512c0 0 0 0 0 0-23.547 0-42.642 19.059-42.701 42.593v106.707c0.058 23.539 19.154 42.598 42.701 42.598 0 0 0 0 0 0h512c0 0 0 0 0 0 23.547 0 42.642-19.059 42.701-42.593v-0.006zM106.701 597.299v-597.299c0-35.346 28.654-64 64-64v0h682.598c35.346 0 64 28.654 64 64v0 597.299zM384 64c0-23.583-19.118-42.701-42.701-42.701v0h-85.299c-23.583 0-42.701 19.118-42.701 42.701v64c0 23.583 19.118 42.701 42.701 42.701v0h85.299c23.583 0 42.701-19.118 42.701-42.701v0zM384 256c0-23.583-19.118-42.701-42.701-42.701v0h-85.299c-23.583 0-42.701 19.118-42.701 42.701v64c0 23.583 19.118 42.701 42.701 42.701h85.299c23.583 0 42.701-19.118 42.701-42.701v0zM384 448c0-23.583-19.118-42.701-42.701-42.701v0h-85.299c-23.583 0-42.701 19.118-42.701 42.701v0 64c0 23.583 19.118 42.701 42.701 42.701h85.299c23.583 0 42.701-19.118 42.701-42.701v0zM597.299 64c0 0 0 0 0 0 0-23.547-19.059-42.642-42.593-42.701h-85.408c-23.539 0.058-42.598 19.154-42.598 42.701 0 0 0 0 0 0v0 64c0 0 0 0 0 0 0 23.547 19.059 42.642 42.593 42.701h85.408c23.539-0.058 42.598-19.154 42.598-42.701 0 0 0 0 0 0v0zM597.299 256c0 0 0 0 0 0 0-23.547-19.059-42.642-42.593-42.701h-85.408c-23.539 0.058-42.598 19.154-42.598 42.701 0 0 0 0 0 0v0 64c0 0 0 0 0 0 0 23.547 19.059 42.642 42.593 42.701h85.408c23.539-0.058 42.598-19.154 42.598-42.701 0 0 0 0 0 0v0zM597.299 448c0 0 0 0 0 0 0-23.547-19.059-42.642-42.593-42.701h-85.408c-23.539 0.058-42.598 19.154-42.598 42.701 0 0 0 0 0 0v0 64c0 0 0 0 0 0 0 23.547 19.059 42.642 42.593 42.701h85.408c23.539-0.058 42.598-19.154 42.598-42.701 0 0 0 0 0 0v0zM810.701 64c0-23.583-19.118-42.701-42.701-42.701v0h-85.299c-23.583 0-42.701 19.118-42.701 42.701v64c0 23.583 19.118 42.701 42.701 42.701v0h85.299c23.583 0 42.701-19.118 42.701-42.701v0zM810.701 256c0-23.583-19.118-42.701-42.701-42.701v0h-85.299c-23.583 0-42.701 19.118-42.701 42.701v64c0 23.583 19.118 42.701 42.701 42.701v0h85.299c23.583 0 42.701-19.118 42.701-42.701v0zM810.701 448c0-23.583-19.118-42.701-42.701-42.701h-85.299c-23.583 0-42.701 19.118-42.701 42.701v0 64c0 23.583 19.118 42.701 42.701 42.701v0h85.299c23.583 0 42.701-19.118 42.701-42.701v0z" />
<glyph unicode="&#xe92a;" glyph-name="calendar" d="M976.691 899.994h-197.837v29.286c0.033 0.525 0.051 1.14 0.051 1.758 0 16.683-13.525 30.208-30.208 30.208s-30.208-13.525-30.208-30.208c0-0.618 0.019-1.233 0.055-1.842l-0.004 0.084v-29.286h-175.821v29.286c0 16.683-13.525 30.208-30.208 30.208s-30.208-13.525-30.208-30.208v0-29.286h-169.37v29.286c0.033 0.525 0.051 1.14 0.051 1.758 0 16.683-13.525 30.208-30.208 30.208s-30.208-13.525-30.208-30.208c0-0.618 0.019-1.233 0.055-1.842l-0.004 0.084v-29.286h-204.8c-0.002 0-0.004 0-0.006 0-16.75 0-30.369-13.406-30.713-30.073l-0.001-0.032v-682.086c0-16.966 13.754-30.72 30.72-30.72v0h184.73c30.234-128.429 143.849-222.562 279.45-222.562s249.215 94.133 279.063 220.617l0.387 1.945h185.242c16.966 0 30.72 13.754 30.72 30.72v0 682.086c-0.345 16.7-13.964 30.106-30.714 30.106-0.002 0-0.004 0-0.007 0v0zM252.621 839.68v-27.238c-0.033-0.525-0.051-1.14-0.051-1.758 0-16.683 13.525-30.208 30.208-30.208s30.208 13.525 30.208 30.208c0 0.618-0.019 1.233-0.055 1.842l0.004-0.084v27.238h168.858v-27.238c2.733-14.396 15.217-25.135 30.208-25.135s27.475 10.738 30.178 24.943l0.030 0.192v27.238h176.333v-27.238c-0.033-0.525-0.051-1.14-0.051-1.758 0-16.683 13.525-30.208 30.208-30.208s30.208 13.525 30.208 30.208c0 0.618-0.019 1.233-0.055 1.842l0.004-0.084v27.238h167.629v-123.494h-868.966v123.494zM512-3.584c-125.154 0-226.611 101.457-226.611 226.611s101.457 226.611 226.611 226.611c125.154 0 226.611-101.457 226.611-226.611 0-0.108 0-0.216 0-0.324v0.017c-0.349-124.952-101.635-226.13-226.595-226.304h-0.016zM798.72 218.010c0 1.638 0 3.379 0 5.018-0.088 158.285-128.423 286.566-286.72 286.566-158.351 0-286.72-128.369-286.72-286.72 0-0.054 0-0.108 0-0.162v0.008c0-1.638 0-3.379 0-5.018h-147.763v438.17h868.966v-437.862zM542.72 215.45v146.022c-2.733 14.396-15.217 25.135-30.208 25.135s-27.475-10.738-30.178-24.943l-0.030-0.192v-158.618c-0.001-0.106-0.002-0.232-0.002-0.358 0-8.064 3.203-15.38 8.406-20.744l-0.007 0.008 69.325-69.427c5.523-5.859 13.335-9.507 22-9.507 16.683 0 30.208 13.525 30.208 30.208 0 8.665-3.648 16.477-9.492 21.986l-0.015 0.014-60.006 60.416z" />
<glyph unicode="&#xe92b;" glyph-name="cancel" d="M659.251 431.616c-4.302 4.142-6.974 9.951-6.974 16.384s2.672 12.242 6.967 16.377l350.727 350.727c8.107 8.417 13.323 19.667 14.023 32.124l0.006 0.132c-0.644 12.764-5.869 24.196-14.049 32.789l0.020-0.021-65.536 65.434c-8.565 8.428-20.136 13.824-32.961 14.434l-0.114 0.004c-0.344 0.010-0.75 0.016-1.156 0.016-12.524 0-23.785-5.404-31.579-14.008l-0.032-0.036-350.208-350.618c-4.117-4.355-9.934-7.066-16.384-7.066s-12.267 2.711-16.374 7.055l-0.010 0.011-350.72 350.618c-8.417 8.107-19.667 13.323-32.124 14.023l-0.132 0.006c-12.764-0.644-24.196-5.869-32.789-14.049l0.021 0.020-65.843-65.434c-8.245-8.671-13.489-20.264-14.025-33.074l-0.003-0.103c0.602-12.739 5.837-24.15 14.044-32.682l350.602-350.294c4.355-4.117 7.066-9.934 7.066-16.384s-2.711-12.267-7.055-16.374l-0.011-0.010-350.618-350.618c-8.651-8.243-14.031-19.851-14.031-32.717s5.38-24.474 14.013-32.699l0.018-0.017 65.434-65.536c8.671-8.245 20.264-13.489 33.074-14.025l0.103-0.003c12.739 0.602 24.15 5.837 32.682 14.044l-0.016-0.016 350.31 350.72c4.142 4.302 9.951 6.974 16.384 6.974s12.242-2.672 16.377-6.967l350.625-350.727c8.243-8.651 19.851-14.031 32.717-14.031s24.474 5.38 32.699 14.013l0.017 0.018 65.536 65.536c8.651 8.243 14.031 19.851 14.031 32.717s-5.38 24.474-14.013 32.699l-0.018 0.017z" />
<glyph unicode="&#xe92c;" glyph-name="card-payment" d="M976.998 596.378h-100.659l-50.995 199.782c-5.305 20.514-23.648 35.422-45.473 35.422-4.22 0-8.309-0.557-12.199-1.602l0.328 0.075-116.122-29.696c-6.35-1.673-10.956-7.364-10.956-14.131 0-8.059 6.533-14.591 14.591-14.591 1.292 0 2.544 0.168 3.737 0.483l-0.102-0.023 116.019 29.594c1.302 0.343 2.797 0.539 4.338 0.539 8.229 0 15.148-5.611 17.139-13.216l0.027-0.123 5.734-22.118-766.976-195.891-5.632 22.118c-0.355 1.317-0.559 2.83-0.559 4.39 0 3.334 0.932 6.45 2.548 9.102l-0.044-0.077c2.4 3.999 6.211 6.942 10.729 8.163l0.125 0.029 527.667 134.758c6.219 1.783 10.693 7.419 10.693 14.1 0 1.284-0.165 2.53-0.476 3.717l0.023-0.102c-1.82 6.226-7.477 10.696-14.179 10.696-1.293 0-2.547-0.166-3.742-0.479l0.103 0.023-527.36-134.758c-20.411-5.421-35.206-23.731-35.206-45.497 0-3.914 0.478-7.716 1.38-11.35l-0.068 0.323 108.237-424.755c5.413-20.465 23.754-35.309 45.566-35.328h0.002c4.121 0.031 8.106 0.552 11.918 1.507l-0.347-0.074 7.27 2.15v-18.022c0.058-25.935 21.067-46.943 46.996-47.002h755.923c25.935 0.058 46.943 21.067 47.002 46.996v437.971c-0.058 25.914-21.079 46.899-47.001 46.899 0 0 0 0 0 0v0zM174.080 159.744l-14.131-3.686c-1.28-0.329-2.75-0.518-4.264-0.518-8.241 0-15.175 5.595-17.212 13.193l-0.028 0.125-66.765 259.789 102.4 26.010zM174.080 549.478v-64.614l-109.466-27.853-21.914 85.709 141.619 36.147c-6.38-7.905-10.241-18.074-10.241-29.144 0-0.086 0-0.172 0.001-0.258v0.013zM846.541 596.378h-116.736l109.158 27.853zM809.882 738.406l21.914-85.606-220.467-56.422h-358.4zM976.998 93.286h-756.326c-9.784 0-17.715 7.931-17.715 17.715v438.477c0.058 9.761 7.955 17.657 17.71 17.715h756.332c9.784 0 17.715-7.931 17.715-17.715v0-437.965c0-0.031 0-0.067 0-0.103 0-9.727-7.886-17.613-17.613-17.613-0.036 0-0.072 0-0.108 0h0.006zM582.656 236.237h-318.771c-8.087 0-14.643-6.556-14.643-14.643s6.556-14.643 14.643-14.643h318.771c8.087 0 14.643 6.556 14.643 14.643s-6.556 14.643-14.643 14.643v0zM826.47 493.466c-0.027 0-0.058 0-0.090 0-21.127 0-40.658-6.836-56.501-18.416l0.271 0.189c-15.493 11.39-34.947 18.228-55.998 18.228-0.113 0-0.227 0-0.34-0.001h0.018c-0.189 0.001-0.412 0.002-0.636 0.002-53.217 0-96.358-43.141-96.358-96.358s43.141-96.358 96.358-96.358c21.425 0 41.217 6.993 57.218 18.82l-0.263-0.185c15.673-11.518 35.351-18.431 56.644-18.431 53.161 0 96.256 43.095 96.256 96.256s-43.095 96.256-96.256 96.256c-0.114 0-0.228 0-0.342-0.001h0.018zM730.317 392.602c-0.024-0.169-0.038-0.365-0.038-0.563s0.014-0.394 0.040-0.585l-0.003 0.022c0-1.229 0-2.458 0-3.686v-1.229c1.833-17.836 8.396-33.856 18.4-47.139l-0.173 0.24c-9.993-6.235-22.127-9.933-35.125-9.933-37.043 0-67.072 30.029-67.072 67.072s30.029 67.072 67.072 67.072c12.998 0 25.132-3.697 35.409-10.098l-0.284 0.165c-9.673-13.078-16.097-29.103-17.787-46.514l-0.030-0.385v-0.819c0-1.229 0-2.458 0-3.686-0.027-0.169-0.042-0.364-0.042-0.563s0.015-0.394 0.045-0.584l-0.003 0.021c0-1.434 0-2.97 0-4.506s-0.512-2.765-0.41-4.301zM826.47 330.138c-18.315 0.008-34.911 7.355-47.011 19.26l0.009-0.009-0.717 0.819c-0.597 0.53-1.133 1.1-1.617 1.713l-0.021 0.028-1.843 2.15c-9.491 11.51-15.246 26.408-15.246 42.65s5.756 31.14 15.338 42.765l-0.092-0.115 1.843 2.15v0.512l1.638 1.741 0.717 0.717c12.108 11.964 28.758 19.353 47.134 19.353 37.043 0 67.072-30.029 67.072-67.072s-30.029-67.072-67.072-67.072c-0.046 0-0.093 0-0.139 0h0.007zM368.64 483.942h-64.717c-30.176-0.058-54.623-24.505-54.682-54.676v-64.211c0.058-30.176 24.505-54.623 54.676-54.682h64.723c30 0.289 54.215 24.648 54.272 54.676v64.21c-0.057 30.033-24.272 54.392-54.245 54.681h-0.027zM394.138 389.325h-30.72c-8.087 0-14.643-6.556-14.643-14.643s6.556-14.643 14.643-14.643h30.72c-2.422-11.757-12.685-20.473-24.985-20.48h-65.23c-12.273 0.016-22.505 8.735-24.856 20.317l-0.028 0.163h30.72c8.087 0 14.643 6.556 14.643 14.643s-6.556 14.643-14.643 14.643h-31.232v12.698h31.232c8.087 0 14.643 6.556 14.643 14.643s-6.556 14.643-14.643 14.643h-30.72c1.041 13.153 11.964 23.435 25.291 23.45h64.309c13.353-0.011 24.302-10.284 25.389-23.357l0.006-0.092h-30.72c-8.087 0-14.643-6.556-14.643-14.643s6.556-14.643 14.643-14.643h30.72zM926.208 171.52h-509.44c-8.087 0-14.643-6.556-14.643-14.643s6.556-14.643 14.643-14.643h509.44c8.087 0 14.643 6.556 14.643 14.643s-6.556 14.643-14.643 14.643v0zM323.482 171.52h-59.597c-8.087 0-14.643-6.556-14.643-14.643s6.556-14.643 14.643-14.643h59.597c8.087 0 14.643 6.556 14.643 14.643s-6.556 14.643-14.643 14.643v0z" />
<glyph unicode="&#xe92d;" glyph-name="check" d="M11.776 408.576c-7.27 6.966-11.789 16.753-11.789 27.597s4.518 20.631 11.775 27.584l0.014 0.013 55.194 55.091c6.936 7.292 16.711 11.827 27.546 11.827s20.61-4.535 27.531-11.811l0.015-0.016 3.994-3.891 216.576-232.346c3.474-3.633 8.36-5.891 13.773-5.891s10.298 2.258 13.766 5.884l0.007 0.007 527.77 547.43h3.994c6.936 7.292 16.711 11.827 27.546 11.827s20.61-4.535 27.531-11.811l0.015-0.016 55.194-55.194c7.239-6.961 11.736-16.728 11.736-27.546s-4.497-20.584-11.723-27.534l-0.012-0.012-630.17-653.824c-6.966-7.27-16.753-11.789-27.597-11.789s-20.631 4.518-27.584 11.775l-307.213 330.868z" />
<glyph unicode="&#xe92e;" glyph-name="clock" d="M512 958.771c-282.091 0-510.771-228.68-510.771-510.771s228.68-510.771 510.771-510.771c282.091 0 510.771 228.68 510.771 510.771v0c-0.349 281.951-228.821 510.422-510.738 510.771h-0.034zM512 45.875c-222.087 0-402.125 180.037-402.125 402.125s180.037 402.125 402.125 402.125c222.087 0 402.125-180.037 402.125-402.125v0c-0.291-221.97-180.155-401.834-402.097-402.125h-0.028zM778.24 463.77h-229.581v275.968c0.033 0.62 0.051 1.345 0.051 2.075 0 23.244-18.843 42.086-42.086 42.086s-42.086-18.843-42.086-42.086c0-0.73 0.019-1.456 0.055-2.176l-0.004 0.101v-318.054c0-23.187 18.797-41.984 41.984-41.984v0h271.667c22.333 1.137 40.011 19.522 40.011 42.035s-17.678 40.899-39.91 42.031l-0.101 0.004z" />
<glyph unicode="&#xe92f;" glyph-name="close" d="M602.522 448l402.739 402.637c12.309 11.704 19.966 28.201 19.966 46.487 0 35.403-28.7 64.102-64.102 64.102-18.286 0-34.783-7.657-46.462-19.939l-0.026-0.027-402.637-402.739-402.637 402.739c-11.47 10.906-27.020 17.615-44.137 17.615-35.403 0-64.102-28.7-64.102-64.102 0-17.117 6.709-32.667 17.641-44.164l-0.026 0.027 402.739-402.637-402.739-402.637c-11.575-11.587-18.733-27.588-18.733-45.261 0-35.371 28.674-64.045 64.045-64.045 17.698 0 33.72 7.179 45.311 18.783l402.638 402.638 402.637-402.637c11.592-11.605 27.614-18.784 45.312-18.784 35.371 0 64.045 28.674 64.045 64.045 0 17.673-7.158 33.674-18.733 45.261l0.001-0.001z" />
<glyph unicode="&#xe930;" glyph-name="computer-equipment" d="M942.080 932.762h-860.16c-45.243 0-81.92-36.677-81.92-81.92v0-653.414c0-45.243 36.677-81.92 81.92-81.92v0h315.699v-119.808h-114.381c-0.388 0.033-0.839 0.051-1.294 0.051-9.049 0-16.384-7.335-16.384-16.384s7.335-16.384 16.384-16.384c0.456 0 0.907 0.019 1.353 0.055l-0.059-0.004h457.523c0.388-0.033 0.839-0.051 1.294-0.051 9.049 0 16.384 7.335 16.384 16.384s-7.335 16.384-16.384 16.384c-0.456 0-0.907-0.019-1.353-0.055l0.059 0.004h-114.381v120.013h315.699c45.243 0 81.92 36.677 81.92 81.92v0 653.414c-0.116 45.155-36.749 81.715-81.92 81.715 0 0 0 0 0 0v0zM593.92-4.096h-163.84v119.808h163.84zM991.334 197.427c-0.058-27.102-22.042-49.050-49.152-49.050-0.036 0-0.072 0-0.108 0h-860.154c-27.066 0.058-48.991 21.984-49.050 49.044v49.056h958.464zM991.334 279.347h-958.669v571.699c0.058 27.102 22.042 49.050 49.152 49.050 0.036 0 0.072 0 0.108 0h860.154c27.066-0.058 48.991-21.984 49.050-49.044v-0.006zM942.080 867.84h-860.16c-9.049 0-16.384-7.335-16.384-16.384v0-523.264c0-9.049 7.335-16.384 16.384-16.384v0h707.891c8.474 0.692 15.090 7.74 15.090 16.333s-6.615 15.641-15.031 16.329l-0.059 0.004h-691.814v490.291h828.006v-490.291h-70.861c-0.388 0.033-0.839 0.051-1.294 0.051-9.049 0-16.384-7.335-16.384-16.384s7.335-16.384 16.384-16.384c0.456 0 0.907 0.019 1.353 0.055l-0.059-0.004h86.938c9.049 0 16.384 7.335 16.384 16.384v522.854c0.003 0.122 0.005 0.266 0.005 0.41 0 9.049-7.335 16.384-16.384 16.384-0.002 0-0.004 0-0.005 0v0z" />
<glyph unicode="&#xe931;" glyph-name="delete" d="M846.848 839.475h-136.704v88.781c0 0.001 0 0.003 0 0.004 0 17.532-14.212 31.744-31.744 31.744-0.18 0-0.36-0.001-0.539-0.004h0.027c-0.080 0.004-0.174 0.007-0.269 0.007-1.221 0-2.342-0.427-3.222-1.141l0.010 0.007c-0.646 0.557-1.444 0.954-2.324 1.121l-0.031 0.005h-325.939c-0.123 0.002-0.267 0.003-0.412 0.003-17.306 0-31.334-14.029-31.334-31.334 0-0.145 0.001-0.29 0.003-0.434v0.022-88.883h-137.216c-0.276 0.004-0.601 0.006-0.927 0.006-38.061 0-68.915-30.854-68.915-68.915 0-0.29 0.002-0.58 0.005-0.869v0.044-114.278h60.518v-650.138c-0.007-0.37-0.011-0.805-0.011-1.242 0-37.552 30.442-67.994 67.994-67.994 0.472 0 0.943 0.005 1.413 0.014l-0.070-0.001h549.786c0.398-0.008 0.866-0.013 1.336-0.013 37.778 0 68.403 30.625 68.403 68.403 0 0.293-0.002 0.585-0.006 0.877v-0.044 650.138h60.006v114.278c0.003 0.245 0.005 0.534 0.005 0.824 0 38.117-30.9 69.018-69.018 69.018-0.29 0-0.579-0.002-0.868-0.005h0.044zM377.856 896.512h268.288v-57.037h-268.288zM792.678 5.632c0-3.994-1.741-5.734-5.734-5.734h-549.786c-4.096 0-5.837 1.741-5.837 5.734v649.728h561.357zM852.685 719.258h-681.37v51.2c0 3.994 1.741 6.349 5.837 6.349h669.696c4.096 0 5.837-2.355 5.837-6.349v-51.2zM628.224 581.018h64v-525.005h-64v525.005zM480.563 581.018h64v-525.005h-64v525.005zM332.902 581.018h64v-525.005h-64v525.005z" />
<glyph unicode="&#xe932;" glyph-name="diamond" d="M512-32.051c-7.172 0.086-13.508 3.588-17.468 8.951l-0.042 0.060-124.314 160.87c-1.846 2.353-2.961 5.356-2.961 8.62 0 0.571 0.034 1.133 0.1 1.686l-0.007-0.067c1.015 7.069 7.030 12.442 14.3 12.442 4.622 0 8.736-2.171 11.379-5.55l0.024-0.032 71.68-93.082 10.957 5.222-137.011 542.72h-296.653l271.462-351.334c1.846-2.353 2.961-5.356 2.961-8.62 0-0.571-0.034-1.133-0.1-1.686l0.007 0.067c-0.493-3.895-2.497-7.245-5.395-9.499l-0.032-0.024c-2.415-1.853-5.48-2.97-8.806-2.97 0 0 0 0-0.001 0v0c-0.038 0-0.083-0.001-0.128-0.001-4.583 0-8.653 2.198-11.213 5.597l-0.026 0.036-285.901 370.483c-2.873 3.695-4.606 8.4-4.606 13.51 0 4.075 1.102 7.892 3.024 11.17l-0.056-0.104 163.84 280.576c3.97 6.627 11.094 11.007 19.244 11.059h651.886c8.158-0.052 15.281-4.432 19.194-10.957l0.057-0.102 53.965-93.184c1.209-2.066 1.923-4.55 1.923-7.2 0-5.286-2.841-9.909-7.079-12.425l-0.067-0.037c-2.021-1.223-4.463-1.947-7.074-1.947-0.069 0-0.138 0.001-0.207 0.002h0.010c-5.244 0.009-9.832 2.812-12.354 7.001l-0.036 0.065-44.237 75.776-143.36-245.76h286.72l-33.28 57.344c-1.209 2.066-1.923 4.55-1.923 7.2 0 5.286 2.841 9.909 7.079 12.425l0.067 0.037c2.011 1.223 4.443 1.946 7.044 1.946 0.044 0 0.087 0 0.13-0.001h-0.007c5.273-0.014 9.889-2.812 12.456-7.002l0.036-0.064 43.622-74.752c1.899-3.232 3.020-7.119 3.020-11.267 0-5.006-1.633-9.63-4.395-13.37l0.043 0.062-489.677-634.88c-4.093-5.467-10.542-8.977-17.812-9.011h-0.006zM548.352 67.482l10.957-5.325 422.912 548.352h-296.96zM505.958 65.126h12.186l137.216 545.382h-286.72zM374.477 639.283h275.354l-137.83 244.941zM38.195 639.283h286.72l-143.36 245.76zM674.509 654.029l143.36 245.248h-281.19zM349.798 654.029l137.728 245.248h-280.883z" />
<glyph unicode="&#xe933;" glyph-name="download" d="M101.376-61.542c-0.153-0.001-0.335-0.001-0.516-0.001-55.382 0-100.339 44.635-100.859 99.894v634.929c0.058 55.286 44.861 100.089 100.142 100.147h127.698c0.535 0.033 1.161 0.051 1.791 0.051 17.306 0 31.334-14.029 31.334-31.334s-14.029-31.334-31.334-31.334c-0.63 0-1.255 0.019-1.876 0.055l0.086-0.004h-127.693c-0.397 0.015-0.864 0.024-1.332 0.024-20.642 0-37.376-16.734-37.376-37.376 0-0.080 0-0.161 0.001-0.241v0.012-633.344c0.285-21.319 17.491-38.525 38.783-38.809h821.377c0.366-0.013 0.797-0.020 1.229-0.020 20.586 0 37.274 16.688 37.274 37.274 0 0.007 0 0.014 0 0.021v-0.001 633.651c-0.225 21.235-17.293 38.411-38.465 38.809l-0.038 0.001h-160.461c-0.535-0.033-1.161-0.051-1.791-0.051-17.306 0-31.334 14.029-31.334 31.334s14.029 31.334 31.334 31.334c0.63 0 1.255-0.019 1.876-0.055l-0.086 0.004h161.485c0.153 0.001 0.334 0.001 0.515 0.001 55.454 0 100.456-44.751 100.861-100.11v-634.919c-0.058-55.286-44.861-100.089-100.142-100.147h-0.006zM503.194 331.571c-0.052 0-0.114 0-0.176 0-7.751 0-14.85 2.787-20.352 7.413l0.048-0.040-141.926 121.344c-5.814 5.49-9.62 13.052-10.234 21.5l-0.006 0.107c-0.087 0.83-0.136 1.794-0.136 2.769 0 7.402 2.856 14.136 7.525 19.163l-0.016-0.018c6.024 6.624 14.653 10.785 24.256 10.854h0.012c0.114 0.002 0.25 0.003 0.385 0.003 7.373 0 14.081-2.844 19.089-7.494l-0.018 0.016 90.624-77.824v498.074c-0.033 0.525-0.051 1.138-0.051 1.755 0 16.627 13.479 30.106 30.106 30.106s30.106-13.479 30.106-30.106c0-0.617-0.019-1.231-0.055-1.839l0.004 0.084v-496.64l90.317 76.288c5.734 4.894 13.209 7.901 21.383 7.987h0.018c0.015 0 0.032 0 0.050 0 9.465 0 17.93-4.28 23.565-11.011l0.039-0.048c5.044-5.282 8.149-12.455 8.149-20.353 0-0.657-0.022-1.309-0.064-1.956l0.005 0.088c-0.677-8.647-4.769-16.224-10.913-21.468l-0.044-0.036-140.698-121.446c-5.448-4.53-12.517-7.28-20.228-7.28-0.269 0-0.536 0.003-0.803 0.010l0.040-0.001z" />
<glyph unicode="&#xe934;" glyph-name="edit" d="M987.443 16.794h-950.886c-19.678-0.058-35.622-15.965-35.738-35.624v-0.011c0.449-19.533 16.195-35.244 35.701-35.635l0.037-0.001h952.32c19.414 0.4 35.012 16.178 35.123 35.624v0.011c-0.515 19.789-16.679 35.635-36.545 35.635-0.004 0-0.008 0-0.012 0h0.001zM0.819 332.39l-0.819-169.472c-0.004-0.193-0.006-0.421-0.006-0.65 0-9.889 3.905-18.867 10.257-25.474l-0.012 0.012c6.305-6.328 15.028-10.244 24.665-10.244 0.185 0 0.369 0.001 0.553 0.004h-0.028l169.37 0.717c0.119-0.001 0.259-0.002 0.4-0.002 9.677 0 18.439 3.913 24.792 10.243l-0.001-0.001 581.939 582.554c6.42 6.611 10.379 15.643 10.379 25.6s-3.958 18.989-10.387 25.609l0.009-0.009-166.81 168.243c-6.611 6.42-15.643 10.379-25.6 10.379s-18.989-3.958-25.609-10.387l-116.727-116.829-465.92-465.101c-6.175-6.613-10.082-15.413-10.443-25.12l-0.002-0.071zM619.827 863.539l117.453-117.35-66.15-66.048-117.453 117.35zM73.011 316.723l429.466 429.466 117.35-117.35-429.466-428.544-118.17-0.922z" />
<glyph unicode="&#xe935;" glyph-name="electrical-equipment" d="M873.984 810.086q-7.68 7.68-15.667 15.053c-2.471 1.969-5.639 3.159-9.085 3.159-8.087 0-14.643-6.556-14.643-14.643 0-3.88 1.509-7.407 3.972-10.027l-0.007 0.008c5.018-4.608 10.24-9.318 14.848-14.234 87.372-87.372 141.413-208.076 141.413-341.402 0-266.651-216.163-482.815-482.813-482.816h-0.001c-11.311 0-20.48 9.169-20.48 20.48v0 143.36h40.96v-107.827c0.096-8.071 6.66-14.576 14.745-14.576 0.361 0 0.718 0.013 1.072 0.038l-0.048-0.003c227.409 19.392 404.645 208.764 404.645 439.533 0 243.578-197.459 441.037-441.037 441.037s-441.037-197.459-441.037-441.037c0-200.296 133.519-369.406 316.408-423.182l3.119-0.786c6.544-3.507 10.919-10.298 10.919-18.111 0-11.311-9.169-20.48-20.48-20.48-0.672 0-1.336 0.032-1.992 0.096l0.083-0.006c-203.425 59.902-349.389 244.95-349.389 464.091 0 266.708 216.21 482.918 482.918 482.918 101.838 0 196.313-31.523 274.201-85.342l-1.612 1.053c2.304-1.604 5.162-2.562 8.243-2.562 8.032 0 14.543 6.511 14.543 14.543 0 4.95-2.473 9.323-6.252 11.949l-0.048 0.031c-80.969 56.146-181.309 89.694-289.485 89.694-282.77 0-512-229.23-512-512 0-0.033 0-0.066 0-0.099v0.005c0.124-232.478 154.985-428.752 367.165-491.421l3.626-0.918c4.050-1.202 8.702-1.893 13.517-1.893 27.173 0 49.202 22.028 49.202 49.202 0 22.359-14.914 41.235-35.337 47.221l-0.348 0.087c-174.755 51.161-300.223 209.998-300.223 398.138 0 228.704 185.401 414.106 414.106 414.106s414.106-185.401 414.106-414.106c0-211.278-158.224-385.601-362.644-410.939l-2.017-0.204v97.792c10.198 7.051 16.794 18.682 16.794 31.853 0 0.034 0 0.067 0 0.101v-0.005c0.2 4.492 3.265 8.217 7.403 9.403l0.072 0.018c80.986 22.335 139.492 95.307 139.571 181.956v107.836c13.469 3.412 23.287 15.399 23.347 29.689v40.353c0 16.966-13.754 30.72-30.72 30.72v0h-19.456v163.226c-0.058 20.732-16.849 37.523-37.575 37.581h-16.39c-20.711-0.058-37.478-16.861-37.478-37.581 0 0 0 0 0 0v0-163.84h-189.645v163.84c0 0 0 0 0 0 0 20.719-16.767 37.522-37.473 37.581h-16.39c-20.711-0.058-37.478-16.861-37.478-37.581 0 0 0 0 0 0v0-163.84h-19.456c-16.966 0-30.72-13.754-30.72-30.72v0-40.346c0.061-14.297 9.878-26.284 23.135-29.65l0.212-0.046v-50.278c0-8.031 6.51-14.541 14.541-14.541s14.541 6.51 14.541 14.541v0 49.971h368.333v-106.906c-0.091-73.186-49.542-134.798-116.846-153.337l-1.118-0.263c-16.779-4.574-28.922-19.652-28.979-37.574v-0.007c-0.007-4.474-3.065-8.231-7.204-9.304l-0.067-0.015h-59.699c-4.205 1.049-7.271 4.793-7.271 9.253 0 0.023 0 0.046 0 0.069v-0.004c-0.070 17.955-12.259 33.045-28.808 37.518l-0.273 0.063c-64.873 17.765-112.618 73.962-117.525 142.027l-0.030 0.514c-0.551 7.598-6.851 13.553-14.541 13.553-8.051 0-14.577-6.526-14.577-14.577 0-0.36 0.013-0.718 0.039-1.071l-0.003 0.047c5.78-81.237 62.322-147.826 137.841-168.549l1.321-0.309c4.167-1.24 7.187-4.954 7.372-9.4l0.001-0.021c0-0.028 0-0.062 0-0.096 0-13.171 6.596-24.802 16.665-31.769l0.128-0.084v-149.811c0-27.202 22.052-49.254 49.254-49.254v0c282.767 0.004 511.993 229.233 511.993 512 0 141.409-57.327 269.428-150.008 362.086l-0.001 0.001zM636.006 730.214v0c0 0 0 0 0 0.001 0 4.601 3.701 8.338 8.289 8.396h16.389c4.637 0 8.397-3.759 8.397-8.397v0-163.84h-33.075v163.84zM354.816 730.214v0c0 4.637 3.759 8.397 8.397 8.397v0h16.384c4.637 0 8.397-3.759 8.397-8.397v0-163.84h-33.178v163.84zM313.856 494.694h-7.27c-0.001 0-0.002 0-0.003 0-0.812 0-1.477 0.631-1.532 1.429v40.146c0 0.848 0.688 1.536 1.536 1.536v0h411.136c0.803-0.055 1.434-0.72 1.434-1.533 0-0.001 0-0.002 0-0.004v0-40.346c0-0.792-0.642-1.434-1.434-1.434v0h-404.173z" />
<glyph unicode="&#xe936;" glyph-name="epis" d="M938.701 352.768v10.24c-0.208 145.292-73.086 273.518-184.228 350.302l-1.423 0.93c-3.379 2.335-7.562 3.73-12.072 3.73-3.354 0-6.528-0.772-9.354-2.147l0.127 0.056c-6.68-3.319-11.351-9.796-12.076-17.423l-0.007-0.087-15.872-191.693c-1.211-11.006-10.459-19.492-21.688-19.492-0.44 0-0.876 0.013-1.31 0.039l0.060-0.003c-10.973 0.885-19.542 10.008-19.542 21.132 0 0.672 0.031 1.336 0.092 1.992l-0.006-0.084 21.299 256c0.051 0.552 0.080 1.195 0.080 1.844 0 11.707-9.49 21.197-21.197 21.197-0.064 0-0.128 0-0.193-0.001h-75.971c-14.818 25.683-42.133 42.692-73.421 42.692s-58.603-17.009-73.204-42.284l-0.217-0.408h-75.878c-0.054 0.001-0.119 0.001-0.183 0.001-11.707 0-21.197-9.49-21.197-21.197 0-0.649 0.029-1.292 0.086-1.926l-0.006 0.082 21.299-256c0.070-0.638 0.111-1.377 0.111-2.126 0-5.154-1.904-9.863-5.047-13.463l0.021 0.024c-3.97-4.592-9.779-7.502-16.268-7.577h-0.013c-11.142 0.062-20.273 8.589-21.293 19.473l-0.006 0.086-15.872 191.693c-0.732 7.715-5.404 14.192-11.957 17.454l-0.126 0.057c-2.699 1.32-5.873 2.091-9.227 2.091-4.51 0-8.693-1.395-12.144-3.776l0.072 0.047c-112.648-77.772-185.552-206.131-185.651-351.524v-10.255c-57.344-20.275-85.299-44.954-85.299-75.162 0-80.384 239.309-213.299 512-213.299s512 133.12 512 213.299c0 30.208-27.955 54.886-85.299 75.469zM554.701 448c0-23.583-19.118-42.701-42.701-42.701v0c-23.647 0.286-42.707 19.522-42.707 43.21 0 0.253 0.002 0.506 0.007 0.758l-0.001-0.038v297.472c0 23.583 19.118 42.701 42.701 42.701s42.701-19.118 42.701-42.701v0z" />
<glyph unicode="&#xe937;" glyph-name="euro" d="M609.894-64c-111.002 0-215.040 65.536-286.72 179.712-33.429 53.5-59.064 115.81-73.346 182.334l-0.689 3.829-5.427 24.474h-98.509c-11.311 0-20.48 9.169-20.48 20.48s9.169 20.48 20.48 20.48v0h92.16l-1.843 33.382c-1.126 16.077-1.638 31.949-1.638 47.309 0 4.915 0 10.24 0 14.95 0 17.203 1.331 34.611 3.072 53.146l3.072 34.304h-91.443c-11.311 0-20.48 9.169-20.48 20.48s9.169 20.48 20.48 20.48v0h99.43l5.939 23.552c18.351 73.908 48.821 138.757 89.546 195.779l-1.175-1.731c71.066 97.178 166.093 151.040 267.469 151.040s196.506-53.862 267.469-151.347c2.375-3.301 3.798-7.424 3.798-11.881 0-11.206-9-20.31-20.166-20.478h-0.016c-0.038 0-0.083 0-0.128 0-6.722 0-12.688 3.239-16.422 8.241l-0.039 0.054c-63.181 86.733-146.432 134.451-234.496 134.451s-171.315-47.718-234.496-134.451c-31.753-43.945-57.214-95.021-73.625-150.001l-0.922-3.599-12.083-39.629h208.384c11.311 0 20.48-9.169 20.48-20.48s-9.169-20.48-20.48-20.48v0h-215.040l-3.174-27.75c-2.56-23.347-3.994-42.906-4.301-61.44 0-4.813 0-8.602 0-12.39 0-16.179 0.717-32.87 2.253-52.736l2.253-28.774h211.456c11.311 0 20.48-9.169 20.48-20.48s-9.169-20.48-20.48-20.48v0h-206.131l10.24-39.014c14.75-56.872 36.624-106.793 65.103-152.146l-1.308 2.233c63.078-101.99 154.931-160.461 251.494-160.461s188.109 58.47 251.904 160.461c3.669 5.801 10.041 9.603 17.302 9.626h0.003c0.039 0 0.085 0 0.131 0 3.953 0 7.629-1.185 10.693-3.219l-0.071 0.045c4.569-2.76 7.881-7.21 9.088-12.463l0.026-0.132c0.339-1.394 0.533-2.995 0.533-4.641 0-4.009-1.152-7.749-3.142-10.906l0.050 0.085c-71.475-114.074-175.923-179.814-286.515-179.814z" />
<glyph unicode="&#xe938;" glyph-name="facebook" d="M768 960h-133.12c-149.197 0-245.76-98.816-245.76-251.904v-116.736h-133.12c-11.311 0-20.48-9.169-20.48-20.48v0-168.346c0-11.311 9.169-20.48 20.48-20.48v0h133.12v-425.574c0-11.311 9.169-20.48 20.48-20.48v0h174.080c11.311 0 20.48 9.169 20.48 20.48v0 425.165h157.491c11.311 0 20.48 9.169 20.48 20.48v0 168.755c0 11.311-9.169 20.48-20.48 20.48v0h-156.16v98.918c0 47.309 11.366 71.68 73.011 71.68h89.498c11.311 0 20.48 9.169 20.48 20.48v0 156.365c0.008 0.214 0.013 0.465 0.013 0.717 0 11.311-9.169 20.48-20.48 20.48-0.004 0-0.009 0-0.013 0h0.001z" />
<glyph unicode="&#xe939;" glyph-name="favorite-border" d="M287.846 827.699c0.135 0 0.294 0 0.454 0 59.854 0 114.022-24.35 153.136-63.683l20.49-20.49 51.2-50.688 50.074 50.79 20.48 19.968c38.147 34.31 88.876 55.294 144.506 55.294 119.555 0 216.474-96.919 216.474-216.474 0-55.911-21.196-106.871-55.992-145.283l0.164 0.184-376.832-375.603-376.525 376.525c-39.382 39.162-63.755 93.381-63.755 153.293 0 119.371 96.758 216.143 216.124 216.166h0.002zM287.846 899.379c-0.143 0-0.312 0-0.481 0-158.973 0-287.846-128.873-287.846-287.846 0-79.963 32.605-152.31 85.246-204.472l0.022-0.021 399.36-399.36c7.112-6.845 16.796-11.061 27.465-11.061 0.136 0 0.273 0.001 0.409 0.002h-0.021c0.037 0 0.082 0 0.126 0 10.589 0 20.194 4.219 27.223 11.068l-0.008-0.008 400.077 399.36c56.705 52.755 92.064 127.797 92.064 211.098 0 159.086-128.965 288.051-288.051 288.051-83.224 0-158.205-35.295-210.791-91.732l-0.159-0.172-20.48-19.968-20.48 20.48c-52.023 52.25-124.014 84.582-203.557 84.582-0.041 0-0.082 0-0.123 0h0.006z" />
<glyph unicode="&#xe93a;" glyph-name="favorite-full" d="M512-3.379c-0.175-0.003-0.383-0.004-0.59-0.004-10.67 0-20.356 4.217-27.48 11.076l0.013-0.012-399.36 399.36c-52.181 52.156-84.458 124.222-84.458 203.827 0 159.159 129.024 288.183 288.183 288.183 79.554 0 151.579-32.235 203.726-84.357l20.479-20.479 19.968 20.070c52.633 55.503 126.905 90.038 209.243 90.038 159.143 0 288.154-129.011 288.154-288.154 0-82.542-34.706-156.978-90.32-209.511l-0.138-0.13-400.077-398.848c-7.021-6.84-16.625-11.059-27.215-11.059-0.044 0-0.089 0-0.133 0h0.007z" />
<glyph unicode="&#xe93b;" glyph-name="furniture" d="M783.974 306.586c0 0 0.001 0 0.001 0 27.033 0 48.947 21.914 48.947 48.947 0 0.108 0 0.216-0.001 0.324v-0.017 293.478c-0.007 25.983-20.257 47.234-45.837 48.838l-0.141 0.007-30.72 183.194c-8.871 43.883-46.497 76.673-92.017 78.025l-0.143 0.003h-304.333c-45.663-1.356-83.289-34.145-92.055-77.408l-0.105-0.621-30.72-183.194c-25.72-1.611-45.971-22.862-45.978-48.844v-293.479c0-27.033 21.914-48.947 48.947-48.947v0h256v-32.973h-27.341c-8.992 0-16.282-7.29-16.282-16.282v0-136.090h-201.318c-8.992 0-16.282-7.29-16.282-16.282v0-51.2c-25.321-7.334-43.52-30.313-43.52-57.543 0-33.028 26.774-59.802 59.802-59.802s59.802 26.774 59.802 59.802c0 27.23-18.199 50.209-43.098 57.437l-0.422 0.105v34.918h228.557v-34.918c-25.321-7.334-43.52-30.313-43.52-57.543 0-33.028 26.774-59.802 59.802-59.802s59.802 26.774 59.802 59.802c0 27.23-18.199 50.209-43.098 57.437l-0.422 0.105v34.918h228.557v-34.918c-25.321-7.334-43.52-30.313-43.52-57.543 0-33.028 26.774-59.802 59.802-59.802s59.802 26.774 59.802 59.802c0 27.23-18.199 50.209-43.098 57.437l-0.422 0.105v51.2c0 8.992-7.29 16.282-16.282 16.282v0h-201.318v136.090c0 8.992-7.29 16.282-16.282 16.282v0h-27.238v32.666zM278.118-3.482c0-0.030 0-0.066 0-0.102 0-15.043-12.195-27.238-27.238-27.238s-27.238 12.195-27.238 27.238c0 15.043 12.195 27.238 27.238 27.238v0c14.984-0.057 27.123-12.16 27.238-27.125v-0.011zM800.358-3.482c0-0.030 0-0.066 0-0.102 0-15.043-12.195-27.238-27.238-27.238s-27.238 12.195-27.238 27.238c0 15.043 12.195 27.238 27.238 27.238v0c14.984-0.057 27.123-12.16 27.238-27.125v-0.011zM299.725 875.93c5.884 28.59 30.28 49.977 59.88 51.196l0.127 0.004h304.64c29.684-1.271 54.028-22.642 59.833-50.788l0.071-0.412 29.696-178.381c-23.339-4.009-40.885-24.060-40.96-48.222v-65.339c-13.477 10.153-30.497 16.266-48.943 16.282h-304.337c-0.010 0-0.022 0-0.034 0-18.474 0-35.521-6.115-49.224-16.432l0.209 0.151v65.331c-0.075 24.171-17.621 44.221-40.669 48.189l-0.291 0.042zM539.238-3.482c0-0.030 0-0.066 0-0.102 0-15.043-12.195-27.238-27.238-27.238s-27.238 12.195-27.238 27.238c0 15.043 12.195 27.238 27.238 27.238v0c14.984-0.057 27.123-12.16 27.238-27.125v-0.011zM539.238 241.254v-119.706h-54.477v119.706zM240.026 339.149c-9.049 0-16.384 7.335-16.384 16.384v0 293.786c0.058 9.004 7.371 16.282 16.384 16.282 0 0 0 0 0 0h21.709c0 0 0 0 0 0 9.013 0 16.326-7.277 16.384-16.276v-239.417c0-8.992 7.29-16.282 16.282-16.282h87.040c8.992 0 16.282 7.29 16.282 16.282s-7.29 16.282-16.282 16.282h-70.758v92.16c0.058 27.045 21.996 48.947 49.049 48.947 0 0 0 0 0 0h304.64c27.009-0.058 48.889-21.938 48.947-48.942v-92.166h-266.24c-8.992 0-16.282-7.29-16.282-16.282s7.29-16.282 16.282-16.282h282.522c8.992 0 16.282 7.29 16.282 16.282v0 239.411c0.058 9.004 7.371 16.282 16.384 16.282 0 0 0 0 0 0h21.709c0 0 0 0 0 0 9.013 0 16.326-7.277 16.384-16.276v-293.484c0-9.049-7.335-16.384-16.384-16.384v0z" />
<glyph unicode="&#xe93c;" glyph-name="handling" d="M450.56-64c-0.495-0.004-1.080-0.007-1.666-0.007-49.236 0-94.4 17.436-129.655 46.47l0.351-0.28-80.998 69.018c-84.992 72.397-132.301 168.755-132.301 271.258v188.109c0 40.96 39.117 74.24 87.245 74.24 0.212 0.001 0.462 0.002 0.713 0.002 21.286 0 41.561-4.33 59.992-12.157l-1.006 0.379v208.486c0 52.429 50.176 95.13 111.821 95.13 12.624-0.027 24.818-1.82 36.363-5.145l-0.933 0.23c4.096 49.254 52.531 88.269 111.514 88.269s107.418-39.014 111.514-88.269c10.612 3.095 22.807 4.889 35.416 4.915h0.015c58.982 0 107.418-39.014 111.514-88.371 10.611 3.177 22.805 5.009 35.426 5.018h0.005c0.501 0.007 1.092 0.012 1.684 0.012 29.497 0 56.536-10.525 77.566-28.024l-0.197 0.159c19.736-15.975 32.362-40.060 32.767-67.107l0.001-0.067v-521.216c0-132.915-127.078-241.050-282.829-241.050zM193.536 519.68c-0.018 0-0.040 0-0.062 0-5.259 0-9.591-3.964-10.174-9.067l-0.004-0.047v-188.109c0-85.094 38.912-165.069 109.568-225.28l80.589-69.018c20.513-16.835 47.027-27.039 75.925-27.039 0.416 0 0.831 0.002 1.246 0.006l-0.063-0.001h184.32c113.971 0 206.643 78.95 206.643 175.923v521.114c-2.849 17.071-17.511 29.923-35.174 29.923s-32.326-12.852-35.146-29.715l-0.029-0.208v-187.597c-3.129-18.562-19.083-32.526-38.298-32.526s-35.169 13.964-38.266 32.298l-0.032 0.228v270.95c-2.708 17.227-17.446 30.248-35.226 30.248s-32.517-13.020-35.199-30.046l-0.026-0.202v-270.95c-2.986-18.663-18.971-32.752-38.246-32.752s-35.26 14.089-38.217 32.531l-0.029 0.221v354.304c-2.708 17.227-17.446 30.248-35.226 30.248s-32.517-13.020-35.199-30.046l-0.026-0.202v-354.304c-1.687-18.377-17.025-32.658-35.698-32.658-0.915 0-1.821 0.034-2.719 0.102l0.12-0.007c-0.775-0.060-1.679-0.094-2.591-0.094-18.653 0-33.968 14.29-35.595 32.52l-0.010 0.137v270.95c-1.584 16.933-15.726 30.082-32.94 30.082-0.804 0-1.602-0.029-2.392-0.085l0.106 0.006c-0.122 0.001-0.266 0.002-0.411 0.002-9.329 0-17.882-3.327-24.535-8.859l0.063 0.051c-6.176-5.068-10.119-12.66-10.24-21.177v-437.78c-1.687-18.377-17.025-32.658-35.698-32.658-0.915 0-1.821 0.034-2.719 0.102l0.12-0.007c-0.778-0.060-1.685-0.094-2.599-0.094-18.673 0-34.011 14.281-35.688 32.517l-0.010 0.141v124.723c-0.512 28.365-27.238 51.2-60.211 51.2z" />
<glyph unicode="&#xe93d;" glyph-name="industrial-equipment" d="M718.848 56.73c-6.178 0.587-10.972 5.75-10.972 12.032s4.794 11.445 10.923 12.028l0.049 0.004h6.861l8.806 62.054h-445.030l8.806-62.054h6.861c6.178-0.587 10.972-5.75 10.972-12.032s-4.794-11.445-10.923-12.028l-0.049-0.004h-120.832c-6.178 0.587-10.972 5.75-10.972 12.032s4.794 11.445 10.923 12.028l0.049 0.004h6.861l8.806 62.054h-105.267c-25.792 0.178-47.965 15.488-58.1 37.488l-0.165 0.4c-23.063 51.545-36.496 111.709-36.496 175.010 0 2.121 0.015 4.239 0.045 6.353l-0.004-0.32c-0.026 1.793-0.041 3.909-0.041 6.029 0 63.338 13.432 123.538 37.604 177.908l-1.108-2.792c10.236 22.509 32.418 37.932 58.232 38.195h146.671v5.222c0 16.174 13.112 29.286 29.286 29.286v0h10.854l-5.018 6.451c-10.972 13.601-17.613 31.096-17.613 50.141 0 0.048 0 0.096 0 0.144v-0.008c0.397 38.295 27.009 70.264 62.725 78.837l0.558 0.113 312.218 84.070c9.88 2.448 21.263 3.932 32.966 4.095l0.109 0.001c73.129-0.514 132.213-59.916 132.213-133.117 0-33.835-12.623-64.721-33.416-88.207l0.122 0.14-3.482-3.891 4.608-2.458c9.254-5.053 15.433-14.704 15.462-25.801v-5.022h146.33c25.763-0.186 47.918-15.444 58.1-37.387l0.166-0.398c23.067-51.582 36.501-111.787 36.501-175.129 0-2.259-0.017-4.515-0.051-6.766l0.004 0.34c0.026-1.794 0.042-3.912 0.042-6.033 0-63.301-13.433-123.465-37.603-177.797l1.107 2.787c-10.3-22.4-32.474-37.71-58.242-37.888h-105.393l8.806-62.054h6.963c6.178-0.587 10.972-5.75 10.972-12.032s-4.794-11.445-10.923-12.028l-0.049-0.004zM768 177.357c-2.609-0.027-4.758-1.964-5.117-4.478l-0.003-0.028-13.21-92.16h59.29l-13.21 92.16c-0.362 2.542-2.511 4.478-5.117 4.506h-0.003zM233.574 177.357c-2.609-0.027-4.758-1.964-5.117-4.478l-0.003-0.028-13.21-92.16h58.47l-13.21 92.16c-0.362 2.542-2.511 4.478-5.117 4.506h-0.003zM908.493 442.778c0 0 0 0 0 0 6.637 0 12.025-5.352 12.083-11.975v-263.891h8.704c16.125 0.195 29.955 9.82 36.249 23.607l0.103 0.252c21.698 49.008 34.331 106.168 34.331 166.277 0 1.663-0.010 3.324-0.029 4.983l0.002-0.252c0.018 1.436 0.028 3.132 0.028 4.83 0 60.111-12.633 117.271-35.388 168.971l1.056-2.691c-6.405 14.014-20.24 23.608-36.333 23.757h-8.723v-57.446c-0.587-6.178-5.75-10.972-12.032-10.972s-11.445 4.794-12.028 10.923l-0.004 0.049v57.446h-113.869v-5.222c-0.058-16.151-13.135-29.228-29.281-29.286h-39.635v-5.222c0-6.673-5.41-12.083-12.083-12.083s-12.083 5.41-12.083 12.083v0 5.222h-355.123v-5.222c-0.587-6.178-5.75-10.972-12.032-10.972s-11.445 4.794-12.028 10.923l-0.004 0.049v5.222h-39.731c-16.151 0.058-29.228 13.135-29.286 29.281v5.228h-113.869v-57.446c-0.587-6.178-5.75-10.972-12.032-10.972s-11.445 4.794-12.028 10.923l-0.004 0.049v57.446h-8.704c-16.112-0.149-29.947-9.743-36.249-23.506l-0.103-0.251c-21.699-49.009-34.332-106.169-34.332-166.28 0-1.698 0.010-3.394 0.030-5.088l-0.002 0.257c-0.017-1.406-0.027-3.067-0.027-4.731 0-60.11 12.632-117.269 35.387-168.968l-1.056 2.691c6.397-14.040 20.227-23.664 36.327-23.859h8.729v263.885c0.587 6.178 5.75 10.972 12.032 10.972s11.445-4.794 12.028-10.923l0.004-0.049v-263.885h76.083l1.331 9.421c2.166 14.244 14.305 25.040 28.974 25.088h22.123c14.675-0.048 26.813-10.844 28.959-24.925l0.020-0.163 1.331-9.421h451.686l1.331 9.421c2.149 14.142 14.126 24.883 28.651 25.088h21.832c0.094 0.001 0.205 0.002 0.316 0.002 14.714 0 26.902-10.813 29.052-24.927l0.020-0.163 1.331-9.421h76.083v263.885c0.056 6.558 5.329 11.866 11.868 11.981h0.011zM270.643 591.36c-2.884 0-5.222-2.338-5.222-5.222v0-34.714c0-2.884 2.338-5.222 5.222-5.222h482.714c2.884 0 5.222 2.338 5.222 5.222v0 34.509c0 2.884-2.338 5.222-5.222 5.222v0zM627.507 615.424h79.053v44.646h-79.053zM381.133 742.195l6.758-5.12c19.86-14.941 32.588-38.437 32.666-64.909v-0.013c0-0.029 0-0.062 0-0.096 0-18.976-6.601-36.411-17.632-50.133l0.121 0.156-5.325-6.656h172.851l-5.632 6.656c-18.994 22.756-30.526 52.315-30.526 84.567 0 28.328 8.896 54.578 24.048 76.109l-0.281-0.42 6.554 9.318zM339.558 729.088c-31.444 0-56.934-25.49-56.934-56.934s25.49-56.934 56.934-56.934c31.444 0 56.934 25.49 56.934 56.934v0c-0.058 31.421-25.514 56.876-56.929 56.934h-0.006zM701.645 753.152c16.151-0.058 29.228-13.135 29.286-29.281v-105.478l6.349 5.734c23.376 20.048 38.093 49.616 38.093 82.621 0 60.004-48.643 108.646-108.646 108.646s-108.646-48.643-108.646-108.646c0-33.005 14.717-62.573 37.947-82.499l7.007-5.856v105.472c0.058 16.151 13.135 29.228 29.281 29.286h0.006zM632.73 729.088c-2.884 0-5.222-2.338-5.222-5.222v0-39.731h79.053v39.731c0 2.884-2.338 5.222-5.222 5.222v0z" />
<glyph unicode="&#xe93e;" glyph-name="less" d="M981.299 362.701c0.757-0.051 1.641-0.080 2.531-0.080 22.226 0 40.243 18.017 40.243 40.243 0 0.857-0.027 1.707-0.080 2.55l0.006-0.115v85.402c0.047 0.728 0.074 1.578 0.074 2.435 0 22.226-18.017 40.243-40.243 40.243-0.891 0-1.774-0.029-2.651-0.086l0.119 0.006h-938.598c-0.757 0.051-1.641 0.080-2.531 0.080-22.226 0-40.243-18.017-40.243-40.243 0-0.857 0.027-1.707 0.080-2.55l-0.006 0.115v-85.402c-0.047-0.728-0.074-1.578-0.074-2.435 0-22.226 18.017-40.243 40.243-40.243 0.891 0 1.774 0.029 2.651 0.086l-0.119-0.006z" />
<glyph unicode="&#xe93f;" glyph-name="linkedin" d="M1024 337.306v-378.88h-219.443v353.485c0 88.781-31.744 149.402-111.206 149.402-60.621 0-96.768-40.96-112.64-80.384-4.705-13.954-7.42-30.023-7.42-46.727 0-2.365 0.054-4.718 0.162-7.057l-0.012 0.331v-368.64h-219.546s2.97 598.323 0 660.275h219.546v-93.594c0-0.717-1.024-1.434-1.434-2.15h1.434v2.15c29.184 44.954 81.306 109.056 197.837 109.056 144.486 0 252.723-94.413 252.723-297.267zM124.211 937.267c-75.162 0-124.211-48.947-124.211-113.971s47.616-114.176 121.242-114.176h1.638c76.493 0 124.109 50.688 124.109 114.176s-47.718 113.971-122.778 113.971zM13.005-41.267h219.443v660.275h-219.443z" />
<glyph unicode="&#xe940;" glyph-name="logo" d="M681.779 518.246c-5.12 39.629-81.92 205.517-266.24 205.517-152.493-0.64-275.866-124.407-275.866-276.99 0-0.037 0-0.074 0-0.111v0.006c0-164.557 136.806-273.715 275.251-273.715 0.506-0.003 1.104-0.005 1.702-0.005 50.332 0 97.55 13.336 138.312 36.667l-1.364-0.719c10.75 7.207 23.979 11.502 38.212 11.502 38.23 0 69.222-30.992 69.222-69.222 0-26.683-15.097-49.839-37.215-61.394l-0.382-0.182c-58.543-35.581-129.322-56.642-205.019-56.642-1.219 0-2.437 0.005-3.653 0.016l0.186-0.001c-199.885-0.307-414.925 155.136-414.925 413.798-0.006 0.852-0.010 1.86-0.010 2.868 0 228.478 185.218 413.696 413.696 413.696 0.292 0 0.583 0 0.875-0.001h-0.046c250.368 0 360.653-202.547 378.88-241.254 2.867 3.686 100.454 149.094 103.219 153.6 12.861 17.845 33.585 29.326 56.992 29.326 38.683 0 70.042-31.359 70.042-70.042 0-13.244-3.676-25.63-10.064-36.193l0.176 0.313c-5.427-8.090-174.080-256-197.018-289.997-12.032-18.616-32.683-30.763-56.171-30.763-0.845 0-1.686 0.016-2.523 0.047l0.121-0.004h-343.142c-0.799-0.033-1.736-0.051-2.678-0.051-38.683 0-70.042 31.359-70.042 70.042s31.359 70.042 70.042 70.042c0.942 0 1.879-0.019 2.812-0.055l-0.134 0.004z" />
<glyph unicode="&#xe941;" glyph-name="logotipo" d="M634.88 444.928c0.045 0.001 0.097 0.002 0.15 0.002 2.041 0 3.881-0.866 5.171-2.25l0.004-0.004c1.332-1.394 2.152-3.288 2.152-5.373 0-0.055-0.001-0.11-0.002-0.165v0.008-78.643c0.002-0.065 0.003-0.142 0.003-0.22 0-2.033-0.823-3.874-2.154-5.208v0c-1.294-1.389-3.133-2.254-5.174-2.254-0.053 0-0.106 0.001-0.158 0.002h0.008c-0.071-0.003-0.154-0.004-0.238-0.004-2.015 0-3.827 0.868-5.082 2.251l-0.005 0.006c-1.39 1.294-2.257 3.134-2.257 5.177 0 0.088 0.002 0.176 0.005 0.263v-0.013 4.096c-8.163-7.31-19.004-11.779-30.888-11.779-0.193 0-0.386 0.001-0.578 0.004h0.029c-0.202-0.004-0.441-0.006-0.681-0.006-12.261 0-23.288 5.281-30.93 13.693l-0.031 0.034c-8.179 8.668-13.206 20.387-13.206 33.28s5.027 24.612 13.228 33.304l-0.022-0.024c7.696 8.506 18.775 13.828 31.097 13.828 0.191 0 0.383-0.001 0.573-0.004h-0.029c0.118 0.001 0.257 0.002 0.397 0.002 11.95 0 22.847-4.509 31.082-11.918l-0.042 0.037v4.096c-0.001 0.053-0.002 0.116-0.002 0.179 0 2.097 0.863 3.992 2.253 5.349l0.001 0.001c1.26 1.389 3.072 2.257 5.087 2.257 0.084 0 0.167-0.001 0.25-0.004h-0.012zM596.173 366.080c0.412-0.021 0.894-0.033 1.379-0.033 7.922 0 15.102 3.179 20.333 8.331l-0.004-0.004c5.832 5.993 9.5 14.119 9.727 23.099l0.001 0.044c0 0.038 0 0.083 0 0.128 0 8.584-3.396 16.375-8.918 22.102l0.009-0.010c-5.69 5.695-13.553 9.217-22.239 9.217-0.102 0-0.203 0-0.305-0.001h0.016c-8.126-0.053-15.416-3.59-20.458-9.191l-0.022-0.025c-5.405-5.812-8.722-13.629-8.722-22.221s3.317-16.409 8.741-22.241l-0.019 0.020c5.064-5.626 12.354-9.163 20.471-9.216h0.009zM236.851 364.544c-4 4.187-7.278 9.106-9.606 14.529l-0.122 0.319c-2.267 5.307-3.585 11.482-3.585 17.964 0 0.128 0.001 0.257 0.002 0.385v-0.020c-0.005 0.265-0.009 0.578-0.009 0.892 0 12.663 5.086 24.139 13.326 32.496l-0.005-0.005c4.103 4.196 8.955 7.64 14.344 10.117l0.299 0.123c5.194 2.33 11.257 3.687 17.637 3.687 0.063 0 0.127 0 0.19 0h-0.010c0.148 0.002 0.322 0.003 0.497 0.003 12.56 0 23.88-5.308 31.839-13.803l0.022-0.024c4.108-4.192 7.403-9.198 9.621-14.75l0.107-0.302c2.331-5.38 3.687-11.645 3.687-18.226 0-0.036 0-0.073 0-0.109v0.006c0.001-0.047 0.002-0.102 0.002-0.157 0-2.085-0.82-3.978-2.155-5.376l0.003 0.003c-1.369-1.437-3.291-2.337-5.424-2.355h-67.997c1.731-6.849 5.576-12.624 10.79-16.744l0.065-0.049c5.075-4.333 11.692-6.994 18.929-7.065h0.015c10.048 0.051 18.949 4.919 24.518 12.411l0.058 0.082c1.251 1.525 3.117 2.506 5.213 2.56h0.009c0.149 0.011 0.323 0.017 0.499 0.017 1.911 0 3.647-0.747 4.931-1.966l-0.003 0.003c1.586-1.431 2.579-3.493 2.579-5.787 0-1.988-0.745-3.802-1.972-5.177l0.007 0.008c-8.296-10.813-21.223-17.715-35.762-17.715-0.028 0-0.055 0-0.082 0h0.004c-0.109-0.001-0.237-0.002-0.366-0.002-12.671 0-24.084 5.39-32.069 14.002l-0.026 0.028zM299.008 405.504c-1.729 6.893-5.531 12.724-10.696 16.954l-0.056 0.044c-5.022 4.206-11.551 6.76-18.678 6.76-0.094 0-0.187 0-0.281-0.001h0.014c-0.055 0-0.12 0.001-0.185 0.001-7.185 0-13.775-2.552-18.911-6.799l0.050 0.040c-5.221-4.274-9.023-10.106-10.705-16.78l-0.047-0.218zM340.582 356.454c-4.472 3.144-8.167 7.068-10.962 11.607l-0.097 0.169c-0.666 1.123-1.059 2.475-1.059 3.92 0 0.681 0.088 1.342 0.252 1.971l-0.012-0.054c0.365 2.080 1.572 3.823 3.248 4.898l0.029 0.017c1.095 0.731 2.441 1.167 3.889 1.167 0.656 0 1.292-0.089 1.895-0.257l-0.050 0.012c2.024-0.481 3.69-1.745 4.692-3.447l0.019-0.035c1.635-2.747 3.802-5.011 6.375-6.711l0.076-0.047c2.57-2.146 5.881-3.483 9.502-3.584h0.022c0.111-0.003 0.242-0.005 0.373-0.005 3.389 0 6.469 1.328 8.746 3.492l-0.005-0.005c2.383 1.892 3.897 4.789 3.897 8.039 0 0.126-0.002 0.251-0.007 0.376l0.001-0.018c0.019 0.213 0.029 0.461 0.029 0.712 0 2.667-1.199 5.054-3.088 6.65l-0.013 0.011c-3.471 2.184-7.517 3.851-11.839 4.769l-0.244 0.043c-6.415 1.579-12.056 4.118-17.087 7.494l0.191-0.121c-5.871 4.188-9.653 10.975-9.653 18.646 0 0.393 0.010 0.784 0.030 1.172l-0.002-0.054c-0.001 0.096-0.002 0.208-0.002 0.321 0 7.541 3.185 14.339 8.282 19.122l0.014 0.013c5.174 4.945 12.201 7.989 19.939 7.989 5.749 0 11.106-1.68 15.606-4.576l-0.114 0.069c4.516-2.889 8.040-6.974 10.173-11.81l0.067-0.171c0.391-0.891 0.619-1.929 0.619-3.021s-0.228-2.13-0.638-3.070l0.019 0.049c-0.705-1.905-2.086-3.419-3.846-4.281l-0.045-0.020c-0.843-0.384-1.829-0.608-2.867-0.608s-2.024 0.224-2.912 0.626l0.044-0.018c-1.937 0.752-3.46 2.209-4.281 4.047l-0.019 0.049c-1.022 2.299-2.684 4.158-4.759 5.397l-0.054 0.030c-2.041 1.286-4.523 2.048-7.183 2.048-0.031 0-0.061 0-0.092 0h0.005c-0.112 0.003-0.244 0.005-0.376 0.005-3.454 0-6.598-1.325-8.951-3.495l0.009 0.008c-2.327-2.020-3.789-4.983-3.789-8.287 0-0.039 0-0.077 0.001-0.115v0.006c-0.016-0.196-0.024-0.424-0.024-0.655 0-2.632 1.154-4.994 2.984-6.607l0.010-0.008c3.483-1.991 7.517-3.579 11.786-4.551l0.297-0.057c6.452-1.69 12.113-4.218 17.233-7.514l-0.234 0.141c5.664-4.366 9.277-11.153 9.277-18.783 0-0.597-0.022-1.189-0.066-1.775l0.005 0.078c0.001-0.096 0.002-0.208 0.002-0.321 0-7.541-3.185-14.339-8.282-19.122l-0.014-0.013c-4.992-4.939-11.861-7.99-19.442-7.99-0.149 0-0.298 0.001-0.446 0.004h0.022c-6.474 0.224-12.386 2.46-17.175 6.096l0.075-0.054zM444.314 429.261c-8.124-0.066-15.409-3.6-20.458-9.192l-0.022-0.024c-5.405-5.812-8.722-13.629-8.722-22.221s3.317-16.409 8.741-22.241l-0.019 0.020c5.071-5.616 12.356-9.15 20.468-9.216h0.012c0.242-0.007 0.526-0.011 0.812-0.011 9.792 0 18.481 4.723 23.913 12.015l0.056 0.079c1.15 1.623 2.871 2.776 4.866 3.166l0.049 0.008h1.331c1.587-0.008 3.048-0.546 4.215-1.446l-0.016 0.012c1.669-1.17 2.814-2.99 3.069-5.085l0.003-0.035c0.021-0.215 0.032-0.464 0.032-0.717s-0.012-0.502-0.035-0.748l0.002 0.032c-0.023-1.619-0.557-3.11-1.448-4.322l0.015 0.021c-8.137-11.344-21.284-18.647-36.137-18.647-0.328 0-0.655 0.004-0.981 0.011l0.049-0.001c-0.202-0.004-0.441-0.006-0.681-0.006-12.261 0-23.288 5.281-30.93 13.693l-0.031 0.034c-8.112 8.697-13.092 20.407-13.092 33.28s4.98 24.583 13.119 33.309l-0.027-0.029c7.915 8.517 19.179 13.828 31.684 13.828 0.201 0 0.402-0.001 0.603-0.004h-0.030c0.219 0.004 0.478 0.006 0.738 0.006 14.601 0 27.569-6.993 35.737-17.813l0.082-0.113c0.839-1.295 1.338-2.878 1.338-4.577 0-0.119-0.002-0.237-0.007-0.355l0.001 0.017c0.023-0.215 0.035-0.464 0.035-0.717s-0.013-0.502-0.038-0.748l0.003 0.031c-0.378-2.060-1.492-3.809-3.053-5.003l-0.019-0.014c-1.138-0.93-2.598-1.505-4.192-1.536h-0.007c-0.215-0.047-0.463-0.075-0.717-0.075s-0.501 0.027-0.74 0.079l0.023-0.004c-2.048 0-3.379 2.15-4.813 3.686-5.677 7.084-14.328 11.58-24.029 11.58-0.264 0-0.528-0.003-0.791-0.010l0.039 0.001zM539.341 444.928c0.032 0.001 0.069 0.001 0.107 0.001 2.055 0 3.908-0.865 5.215-2.25l0.003-0.004c1.4-1.422 2.264-3.375 2.264-5.53s-0.864-4.107-2.265-5.531l0.001 0.001c-1.326-1.442-3.219-2.345-5.323-2.355h-0.002c-0.002 0-0.004 0-0.007 0-7.664 0-14.491-3.583-18.898-9.165l-0.039-0.051c-4.847-5.743-7.793-13.227-7.793-21.4 0-0.289 0.004-0.577 0.011-0.864l-0.001 0.042v-39.322c0.002-0.065 0.003-0.142 0.003-0.22 0-2.033-0.823-3.874-2.154-5.208v0c-1.31-1.389-3.163-2.254-5.218-2.254-0.038 0-0.075 0-0.112 0.001h0.006c-0.075-0.003-0.162-0.004-0.25-0.004-2.043 0-3.883 0.867-5.173 2.253l-0.004 0.004c-1.331 1.334-2.154 3.175-2.154 5.208 0 0.077 0.001 0.154 0.004 0.231v-0.011 78.643c-0.001 0.047-0.002 0.102-0.002 0.157 0 2.085 0.82 3.978 2.155 5.376l-0.003-0.003c1.294 1.39 3.134 2.257 5.177 2.257 0.088 0 0.176-0.002 0.263-0.005h-0.013c0.032 0.001 0.069 0.001 0.107 0.001 2.055 0 3.908-0.865 5.215-2.25l0.003-0.004c1.332-1.394 2.152-3.288 2.152-5.373 0-0.055-0.001-0.11-0.002-0.165v0.008-3.072c6.816 6.711 16.176 10.855 26.505 10.855 0.078 0 0.156 0 0.234-0.001h-0.012zM849.306 444.928c0.045 0.001 0.097 0.002 0.15 0.002 2.041 0 3.881-0.866 5.171-2.25l0.004-0.004c1.332-1.394 2.152-3.288 2.152-5.373 0-0.055-0.001-0.11-0.002-0.165v0.008-78.643c0.002-0.065 0.003-0.142 0.003-0.22 0-2.033-0.823-3.874-2.154-5.208v0c-1.294-1.389-3.133-2.254-5.174-2.254-0.053 0-0.106 0.001-0.158 0.002h0.008c-0.071-0.003-0.154-0.004-0.238-0.004-2.015 0-3.827 0.868-5.082 2.251l-0.005 0.006c-1.39 1.294-2.257 3.134-2.257 5.177 0 0.088 0.002 0.176 0.005 0.263v-0.013 4.096c-8.164-7.311-19.005-11.781-30.889-11.781-0.228 0-0.457 0.002-0.684 0.005h0.034c-0.292-0.007-0.637-0.012-0.982-0.012-12.263 0-23.293 5.284-30.936 13.699l-0.031 0.034c-8.112 8.697-13.092 20.407-13.092 33.28s4.98 24.583 13.119 33.309l-0.027-0.029c7.696 8.506 18.775 13.828 31.097 13.828 0.191 0 0.383-0.001 0.573-0.004h-0.029c0.148 0.002 0.323 0.003 0.498 0.003 11.95 0 22.848-4.509 31.083-11.919l-0.042 0.037v4.096c-0.001 0.053-0.002 0.116-0.002 0.179 0 2.097 0.863 3.992 2.253 5.349l0.001 0.001c1.261 1.398 3.079 2.273 5.102 2.273 0.187 0 0.372-0.007 0.555-0.022l-0.024 0.002zM810.086 366.080c0.417-0.021 0.906-0.033 1.397-0.033 7.949 0 15.156 3.178 20.419 8.333l-0.005-0.005c5.987 5.951 9.822 14.062 10.237 23.066l0.003 0.077c0.005 0.217 0.009 0.472 0.009 0.728 0 16.966-13.754 30.72-30.72 30.72-0.291 0-0.581-0.004-0.87-0.012l0.043 0.001c-8.124-0.066-15.409-3.6-20.458-9.192l-0.022-0.024c-5.405-5.812-8.722-13.629-8.722-22.221s3.317-16.409 8.741-22.241l-0.019 0.020c4.958-5.496 12.033-8.999 19.93-9.215l0.038-0.001zM705.126 445.030c0.272 0.006 0.593 0.010 0.914 0.010 12.368 0 23.492-5.322 31.209-13.8l0.031-0.034c8.068-8.715 13.018-20.42 13.018-33.28s-4.949-24.565-13.047-33.312l0.029 0.032c-7.747-8.508-18.868-13.826-31.232-13.826-0.144 0-0.288 0.001-0.431 0.002h0.022c-0.385-0.012-0.839-0.019-1.294-0.019-11.667 0-22.276 4.527-30.168 11.92l0.024-0.023v-35.942c0.002-0.059 0.003-0.128 0.003-0.197 0-2.072-0.821-3.953-2.155-5.335l0.002 0.002c-1.344-1.235-3.143-1.991-5.12-1.991s-3.776 0.757-5.125 1.996l0.005-0.005c-1.332 1.379-2.153 3.26-2.153 5.332 0 0.069 0.001 0.139 0.003 0.207v-0.010 110.49c-0.002 0.065-0.003 0.142-0.003 0.22 0 2.033 0.823 3.874 2.154 5.208v0c1.314 1.303 3.123 2.109 5.12 2.109s3.806-0.805 5.12-2.109v0c1.331-1.334 2.154-3.175 2.154-5.208 0-0.077-0.001-0.154-0.004-0.231v0.011-4.096c8.123 7.368 18.955 11.878 30.841 11.878 0.029 0 0.059 0 0.088 0h-0.005zM705.126 366.49c8.124 0.066 15.409 3.6 20.458 9.192l0.022 0.024c5.329 5.591 8.607 13.178 8.607 21.53 0 0.207-0.002 0.413-0.006 0.619v-0.031c0.004 0.187 0.006 0.408 0.006 0.629 0 8.404-3.277 16.044-8.622 21.71l0.014-0.015c-5.071 5.616-12.356 9.15-20.468 9.216h-0.012c-0.109 0.001-0.237 0.002-0.366 0.002-8.726 0-16.63-3.521-22.368-9.22l0.002 0.002c-5.405-5.812-8.722-13.629-8.722-22.221s3.317-16.409 8.741-22.241l-0.019 0.020c5.767-5.931 13.818-9.615 22.731-9.626h0.002zM879.411 476.877c0.004 0 0.008 0 0.013 0 2.104 0 3.995-0.906 5.307-2.349l0.005-0.006c1.392-1.343 2.256-3.225 2.256-5.308 0-0.078-0.001-0.155-0.004-0.233v0.011-110.49c0-4.185-3.393-7.578-7.578-7.578s-7.578 3.393-7.578 7.578v0 109.978c-0.002 0.066-0.003 0.143-0.003 0.221 0 2.084 0.864 3.965 2.254 5.306l0.002 0.002c1.239 1.647 3.143 2.736 5.305 2.866l0.020 0.001zM909.414 476.672c1.73-0.027 3.348-0.479 4.764-1.256l-0.053 0.027c1.54-0.899 2.765-2.19 3.56-3.738l0.024-0.051c0.832-1.443 1.325-3.172 1.331-5.016v-0.002c0-0.015 0-0.033 0-0.051 0-1.782-0.455-3.458-1.256-4.917l0.027 0.053c-0.823-1.565-2.048-2.823-3.539-3.663l-0.045-0.023c-1.373-0.841-3.035-1.339-4.813-1.339s-3.44 0.498-4.854 1.362l0.041-0.023c-1.559 0.832-2.793 2.099-3.562 3.638l-0.022 0.048c-0.862 1.469-1.372 3.235-1.372 5.12s0.509 3.651 1.398 5.168l-0.026-0.048c0.819 1.599 2.044 2.89 3.541 3.765l0.043 0.023c1.255 0.591 2.725 0.936 4.276 0.936 0.189 0 0.376-0.005 0.562-0.015l-0.026 0.001zM909.414 444.928c0.045 0.001 0.097 0.002 0.15 0.002 2.041 0 3.881-0.866 5.171-2.25l0.004-0.004c1.392-1.359 2.255-3.254 2.255-5.35 0-0.063-0.001-0.126-0.002-0.188v0.009-78.643c0 0 0 0 0-0.001 0-4.206-3.38-7.622-7.572-7.679h-0.005c-0.071-0.003-0.154-0.004-0.238-0.004-2.015 0-3.827 0.868-5.082 2.251l-0.005 0.006c-1.39 1.294-2.257 3.134-2.257 5.177 0 0.088 0.002 0.176 0.005 0.263v-0.013 78.643c-0.001 0.053-0.002 0.116-0.002 0.179 0 2.097 0.863 3.992 2.253 5.349l0.001 0.001c1.26 1.389 3.072 2.257 5.087 2.257 0.084 0 0.167-0.001 0.25-0.004h-0.012zM1016.627 444.928c0.071 0.003 0.154 0.004 0.238 0.004 2.015 0 3.827-0.868 5.082-2.251l0.005-0.006c1.332-1.394 2.152-3.288 2.152-5.373 0-0.055-0.001-0.11-0.002-0.165v0.008-78.643c0.002-0.065 0.003-0.142 0.003-0.22 0-2.033-0.823-3.874-2.154-5.208v0c-1.26-1.389-3.072-2.257-5.087-2.257-0.084 0-0.167 0.001-0.25 0.004h0.012c-4.197 0.058-7.578 3.474-7.578 7.679 0 0 0 0 0 0.001v0 4.096c-8.163-7.31-19.004-11.779-30.888-11.779-0.193 0-0.386 0.001-0.578 0.004h0.029c-0.202-0.004-0.441-0.006-0.681-0.006-12.261 0-23.288 5.281-30.93 13.693l-0.031 0.034c-8.179 8.668-13.206 20.387-13.206 33.28s5.027 24.612 13.228 33.304l-0.022-0.024c7.696 8.506 18.775 13.828 31.097 13.828 0.191 0 0.383-0.001 0.573-0.004h-0.029c0.118 0.001 0.257 0.002 0.397 0.002 11.95 0 22.847-4.509 31.082-11.918l-0.042 0.037v4.096c-0.001 0.053-0.002 0.116-0.002 0.179 0 2.097 0.863 3.992 2.253 5.349l0.001 0.001c1.294 1.389 3.133 2.254 5.174 2.254 0.053 0 0.106-0.001 0.158-0.002h-0.008zM977.51 366.080c0.393-0.019 0.854-0.030 1.318-0.030 7.973 0 15.205 3.175 20.5 8.33l-0.006-0.006c5.77 6.021 9.395 14.137 9.625 23.098l0.001 0.044c0 0.038 0 0.083 0 0.128 0 8.584-3.396 16.375-8.918 22.102l0.009-0.010c-5.69 5.695-13.553 9.217-22.239 9.217-0.102 0-0.203 0-0.305-0.001h0.016c-8.124-0.066-15.409-3.6-20.458-9.192l-0.022-0.024c-5.405-5.812-8.722-13.629-8.722-22.221s3.317-16.409 8.741-22.241l-0.019 0.020c5.071-5.616 12.356-9.15 20.468-9.216h0.012zM186.061 482.918c-8.873 32.342-38.008 55.713-72.602 55.713-41.511 0-75.162-33.651-75.162-75.162 0-0.038 0-0.077 0-0.115v0.006c0.058-41.241 33.503-74.65 74.752-74.65 0.108 0 0.216 0 0.324 0.001h-0.017c13.924 0.059 26.95 3.854 38.142 10.434l-0.356-0.194c2.731 1.609 6.016 2.56 9.523 2.56 10.491 0 18.995-8.504 18.995-18.995 0-6.983-3.768-13.086-9.383-16.387l-0.089-0.048c-16.032-9.715-35.406-15.465-56.122-15.465-0.25 0-0.499 0.001-0.748 0.002h0.038c-61.122 1.895-109.95 51.898-109.95 113.306s48.828 111.41 109.776 113.301l0.174 0.004c45.317-0.458 84.345-26.92 102.918-65.156l0.301-0.687c0.819 1.024 27.443 40.96 28.16 41.882 3.549 4.979 9.304 8.187 15.807 8.187 4.079 0 7.863-1.262 10.984-3.417l-0.065 0.042c4.953-3.488 8.149-9.181 8.149-15.621 0-3.693-1.051-7.141-2.87-10.060l0.047 0.081c-1.434-2.253-47.309-69.734-53.76-79.155-3.267-5.087-8.896-8.409-15.301-8.409-0.237 0-0.473 0.005-0.707 0.014l0.034-0.001h-93.696c-0.419-0.033-0.907-0.051-1.399-0.051-10.576 0-19.149 8.573-19.149 19.149s8.573 19.149 19.149 19.149c0.492 0 0.981-0.019 1.464-0.055l-0.064 0.004z" />
<glyph unicode="&#xe942;" d="M634.88 444.928c0.032 0.001 0.069 0.001 0.107 0.001 2.055 0 3.908-0.865 5.215-2.25l0.003-0.004c1.332-1.394 2.152-3.288 2.152-5.373 0-0.055-0.001-0.11-0.002-0.165v0.008-78.643c0.002-0.065 0.003-0.142 0.003-0.22 0-2.033-0.823-3.874-2.154-5.208v0c-1.31-1.389-3.163-2.254-5.218-2.254-0.038 0-0.075 0-0.112 0.001h0.006c-0.071-0.003-0.154-0.004-0.238-0.004-2.015 0-3.827 0.868-5.082 2.251l-0.005 0.006c-1.39 1.294-2.257 3.134-2.257 5.177 0 0.088 0.002 0.176 0.005 0.263v-0.013 4.096c-8.219-7.312-19.109-11.779-31.043-11.779-0.174 0-0.349 0.001-0.523 0.003h0.027c-0.202-0.004-0.441-0.006-0.681-0.006-12.261 0-23.288 5.281-30.93 13.693l-0.031 0.034c-8.112 8.697-13.092 20.407-13.092 33.28s4.98 24.583 13.119 33.309l-0.027-0.029c7.696 8.508 18.776 13.831 31.1 13.831 0.262 0 0.524-0.002 0.786-0.007l-0.039 0.001c0.102 0.001 0.223 0.001 0.344 0.001 12 0 22.947-4.507 31.241-11.92l-0.045 0.040v4.096c-0.001 0.053-0.002 0.116-0.002 0.179 0 2.097 0.863 3.992 2.253 5.349l0.001 0.001c1.26 1.386 3.070 2.253 5.083 2.253 0.013 0 0.026 0 0.039 0h-0.002zM595.968 366.080c0.417-0.021 0.906-0.033 1.397-0.033 7.949 0 15.156 3.178 20.419 8.333l-0.005-0.005c5.987 5.951 9.822 14.062 10.237 23.066l0.003 0.077c0 0.056 0.001 0.123 0.001 0.189 0 8.583-3.44 16.363-9.016 22.036l0.004-0.004c-5.58 5.693-13.35 9.222-21.944 9.222-0.205 0-0.41-0.002-0.615-0.006h0.031c-0.087 0.001-0.189 0.002-0.292 0.002-8.205 0-15.581-3.548-20.679-9.193l-0.022-0.024c-5.405-5.812-8.722-13.629-8.722-22.221s3.317-16.409 8.741-22.241l-0.019 0.020c5.071-5.616 12.356-9.15 20.468-9.216h0.012z" />
<glyph unicode="&#xe943;" d="M236.749 364.544c-8.275 8.592-13.382 20.285-13.414 33.171v0.006c-0.004 0.223-0.006 0.485-0.006 0.749 0 12.727 5.125 24.256 13.424 32.638l-0.004-0.004c4.088 4.221 8.944 7.668 14.349 10.12l0.295 0.12c5.194 2.33 11.257 3.687 17.637 3.687 0.063 0 0.127 0 0.19 0h-0.010c0.148 0.002 0.322 0.003 0.497 0.003 12.56 0 23.88-5.308 31.839-13.803l0.022-0.024c8.241-8.652 13.312-20.389 13.312-33.311 0-0.025 0-0.050 0-0.076v0.004c0.001-0.047 0.002-0.102 0.002-0.157 0-2.085-0.82-3.978-2.155-5.376l0.003 0.003c-1.35-1.451-3.271-2.355-5.402-2.355-0.009 0-0.018 0-0.026 0h-67.89c1.731-6.849 5.576-12.624 10.79-16.744l0.065-0.049c5.040-4.145 11.559-6.657 18.664-6.657 0.098 0 0.197 0 0.295 0.001h-0.015c10.048 0.051 18.949 4.919 24.518 12.411l0.058 0.082c1.234 1.547 3.11 2.536 5.218 2.56h0.004c0.149 0.011 0.323 0.017 0.499 0.017 1.911 0 3.647-0.747 4.931-1.966l-0.003 0.003c1.461-1.377 2.414-3.279 2.559-5.402l0.001-0.025c0.006-0.111 0.009-0.241 0.009-0.372 0-1.982-0.741-3.792-1.961-5.166l0.007 0.008c-8.316-10.814-21.258-17.715-35.812-17.715-0.010 0-0.019 0-0.029 0h0.002c-0.235-0.005-0.511-0.007-0.788-0.007-12.463 0-23.705 5.226-31.654 13.607l-0.018 0.019zM298.906 405.504c-1.729 6.893-5.531 12.724-10.696 16.954l-0.056 0.044c-5.073 4.206-11.651 6.759-18.824 6.759-0.042 0-0.084 0-0.126 0h0.007c-0.098 0.001-0.215 0.002-0.331 0.002-7.138 0-13.68-2.554-18.762-6.798l0.047 0.038c-5.221-4.274-9.023-10.106-10.705-16.78l-0.047-0.218z" />
<glyph unicode="&#xe944;" d="M340.48 356.454c-4.52 3.089-8.228 7.026-10.966 11.608l-0.093 0.168c-0.728 1.123-1.161 2.497-1.161 3.972 0 0.663 0.087 1.305 0.252 1.916l-0.012-0.052c0.45 2.072 1.675 3.798 3.35 4.897l0.030 0.018c1.073 0.729 2.398 1.164 3.824 1.164 0.643 0 1.266-0.089 1.857-0.254l-0.048 0.012c2.034-0.456 3.709-1.728 4.692-3.447l0.018-0.035c1.69-2.707 3.845-4.961 6.376-6.709l0.075-0.049c2.501-1.945 5.655-3.159 9.087-3.276l0.026-0.001c0.094-0.002 0.205-0.004 0.315-0.004 3.44 0 6.571 1.325 8.909 3.493l-0.008-0.008c2.381 2.036 3.883 5.040 3.891 8.395v0.001c0.020 0.217 0.031 0.469 0.031 0.724 0 2.685-1.245 5.079-3.188 6.636l-0.017 0.013c-3.442 2.171-7.451 3.836-11.734 4.768l-0.247 0.045c-6.452 1.585-12.126 4.124-17.197 7.497l0.198-0.124c-5.64 4.206-9.253 10.86-9.253 18.357 0 0.459 0.014 0.914 0.040 1.366l-0.003-0.062c-0.001 0.094-0.002 0.205-0.002 0.316 0 7.563 3.228 14.372 8.381 19.124l0.018 0.016c4.946 4.939 11.775 7.993 19.318 7.993 0.193 0 0.385-0.002 0.577-0.006h-0.029c0.084 0.001 0.184 0.001 0.283 0.001 5.679 0 10.966-1.681 15.389-4.573l-0.108 0.066c4.524-2.88 8.051-6.967 10.173-11.81l0.067-0.17c0.386-0.892 0.61-1.93 0.61-3.021s-0.224-2.129-0.63-3.071l0.019 0.051c-0.708-1.933-2.134-3.458-3.947-4.282l-0.047-0.019c-0.842-0.39-1.828-0.618-2.867-0.618s-2.025 0.228-2.91 0.636l0.043-0.018c-1.937 0.752-3.46 2.209-4.281 4.047l-0.019 0.049c-0.984 2.294-2.613 4.154-4.659 5.398l-0.051 0.029c-2.098 1.286-4.638 2.048-7.356 2.048-0.006 0-0.012 0-0.018 0h0.001c-0.094 0.002-0.205 0.004-0.315 0.004-3.44 0-6.571-1.325-8.909-3.493l0.008 0.008c-2.327-2.020-3.789-4.983-3.789-8.287 0-0.039 0-0.077 0.001-0.115v0.006c-0.023-0.235-0.036-0.509-0.036-0.785 0-2.594 1.162-4.916 2.994-6.475l0.012-0.010c3.452-1.976 7.45-3.562 11.678-4.549l0.302-0.059c6.452-1.665 12.115-4.195 17.224-7.51l-0.225 0.137c5.664-4.366 9.277-11.153 9.277-18.783 0-0.597-0.022-1.189-0.066-1.775l0.005 0.078c0.001-0.085 0.002-0.186 0.002-0.286 0-7.533-3.141-14.332-8.184-19.161l-0.010-0.009c-5.009-4.948-11.897-8.005-19.498-8.005-0.345 0-0.689 0.006-1.031 0.019l0.049-0.001c-6.237 0.273-11.923 2.422-16.564 5.893l0.078-0.056z" />
</font>
</defs>
</svg>
